Торрент файл
скачать торрент магнет ссылка Добавлен: 07 окт 2012, 21:25
Размер: 255.39 МБ
Сидеров: 2
Личеров: 3
Автор

СообщениеДобавлено: 07 окт 2012, 21:25 

Не в сети
Аватара пользователя
Дата регистрации:
28 ноя 2010, 22:22
Спасибо: 722 / 5
Сообщения: 2030
Прогулка по ботаническому саду ТНУ в 3D (часть 2)
Год выпуска: 2011
Страна: Украина
Жанр: Любительское видео
Продолжительность: 00:06:45
Перевод: Не требуется
Русские субтитры: нет
Описание: Фото сессия растительности (часть 2) в ботаническом саду ТНУ им.В.И.Вернадского (СГУ). Фотографии собраны в видео файл для просмотра на телевизорах поддерживающих функцию 3D.
Видео 100% можно смотреть на телевизоре Samsung UE-40 C7000 - проверено.
Прогулка по ботаническому саду ТНУ в 3D (часть 1)
Качество: HDTV
Контейнер: AVI
Формат 3D: Half SideBySide / Горизонтальная анаморфная стереопара
Порядок ракурсов: левый ракурс первый
Видео кодек: xVid
Аудио кодек: MP3
Видео: XVID 5157Kbps 1920х1080 16:9 25.000 fps
Аудио: MP3 2 channels 128 Kbps 44.1 KHz
MediaInfo
General
Complete name : 3D_Botan_sad_Universitet_Simferopol_part2.avi
Format : AVI
Format/Info : Audio Video Interleave
File size : 255 MiB
Duration : 6mn 45s
Overall bit rate : 5 290 Kbps
Video
ID : 0
Format : MPEG-4 Visual
Format profile : Advanced [email protected]
Format settings, BVOP : 2
Format settings, QPel : No
Format settings, GMC : No warppoints
Format settings, Matrix : Default (H.263)
Muxing mode : Packed bitstream
Codec ID : XVID
Codec ID/Hint : XviD
Duration : 6mn 45s
Bit rate : 5 157 Kbps
Width : 1 920 pixels
Height : 1 080 pixels
Display aspect ratio : 16:9
Frame rate : 25.000 fps
Color space : YUV
Chroma subsampling : 4:2:0
Bit depth : 8 bits
Scan type : Progressive
Compression mode : Lossy
Bits/(Pixel*Frame) : 0.099
Stream size : 249 MiB (97%)
Writing library : XviD 64
Audio
ID : 1
Format : MPEG Audio
Format version : Version 1
Format profile : Layer 3
Mode : Joint stereo
Mode extension : MS Stereo
Codec ID : 55
Codec ID/Hint : MP3
Duration : 6mn 45s
Bit rate mode : Constant
Bit rate : 128 Kbps
Channel(s) : 2 channels
Sampling rate : 44.1 KHz
Compression mode : Lossy
Stream size : 6.16 MiB (2%)
Alignment : Aligned on interleaves
Interleave, duration : 1000 ms (25.00 video frames)
Скриншоты






Вернуться к началу
 Профиль Отправить личное сообщение  
 
   Похожие торренты   Автор   Торрент   Размер 
В этой теме нет новых непрочитанных сообщений. Горячее любительское [2015 г., Amateur, CamRip]

Dievas

13 | 1

179.84 МБ

В этой теме нет новых непрочитанных сообщений. [DorcelClub.com] Jessie Volt - Half Angel Half Succubus (25.11.2017) [2017 г., All Sex, Hardcore, 1080p]

salma3

30 | 10

506.33 МБ

В этой теме нет новых непрочитанных сообщений. Любительское порно отца и сисястой дочки (2015) CamRip

Dile-1

150 | 10

81.38 МБ

В этой теме нет новых непрочитанных сообщений. Полночь в саду добра и зла / Midnight in the Garden of Good and Evil [триллер, драма, криминал, детектив, 1997] HDRip, Dub

salma3

158 | 37

1.46 ГБ

В этой теме нет новых непрочитанных сообщений. Быстрая прогулка / Kapgang [драма, 2014] BDRip 720p, Avo

salma3

8 | 2

4.52 ГБ

В этой теме нет новых непрочитанных сообщений. Большая прогулка / La Grande Vadrouille [Комедия, 1966] HDRip-AVC, Dub

salma3

58 | 4

747.4 МБ

В этой теме нет новых непрочитанных сообщений. Прогулка по Миссисипи / Mississippi Grind [Драма, 2015] HDRip, mvo

Dracon

106 | 2

1.4 ГБ


Начать новую тему Ответить на тему  [ 1 сообщение ] 




Для Мосгорсуда, Роскомнадзора и рекламодателей:: mosgorsud-torrent[собачка]yandex.ru
cron