Торрент файл
скачать торрент магнет ссылка Добавлен: 07 окт 2012, 21:24
Размер: 2.34 ГБ
Сидеров: 53
Личеров: 13
Автор

СообщениеДобавлено: 07 окт 2012, 21:24 

Не в сети
Аватара пользователя
Дата регистрации:
28 ноя 2010, 22:22
Спасибо: 722 / 5
Сообщения: 2030
Samsung Demo 3D (v.3)
Год выпуска: 2011
Страна: Корея
Жанр: Демо
Продолжительность: 00:10:52 + 00:09:17
Перевод: Не требуется
Описание: Насколько я в курсе - это третий 3Д демо-диск Самсунга. Исключил уже имеющиеся на трекере ролики. Оставшиеся объединены в два файла с разными параметрами звука (одна глава - один ролик).
Файл #1 (2-х канальный звук):
1. Фестиваль воздушных шаров.
2. Канадские пейзажи.
3. Гольф.
Файл #2 (6-ти канальный звук):
1. Гранд Каньон.
2. Джазовый фестиваль.
3. Ниагарский водопад.
Доп.инфо: За исходник спасибо bodylau!
Проверено на встроенном плейере ТВ Samsung UE-C7000Качество: BDrip
Контейнер: MKV
Формат 3D: Half OverUnder / Вертикальная анаморфная стереопара
Порядок ракурсов: левый ракурс первый
Видео кодек: x264
Аудио кодек: AC3
Видео: AVC / 23,976 fps / 1920х1080p / 15.0 & 16.7 Mbps
Аудио: AC3 / 48 KHz / 2 ch & 5.1 ch / 256 & 640 Kbps
MediaInfo Файла #1
General
UniqueID : 235486804010533581954202266471226241596 (0xB1291BD611D3F1448D5D8D570031723C)
Complete name : F:\Downloads\SamsungDemoVol3(3D)2011.halfOU(ash61)\SamsungDemoVol3(3D)2011.halfOU(ash61)-2ch.mkv
Format : Matroska
File size : 1.19 GiB
Duration : 10mn 53s
Overall bit rate : 15.6 Mbps
Movie name : Samsung Demo 3D (v.3) 2011 (ash61)
Encoded date : UTC 2012-04-18 18:58:45
Writing application : mkvmerge v3.4.0 ('Rapunzel') сборка от May 15 2010 09:38:20
Writing library : libebml v0.8.0 + libmatroska v0.9.0
Video
ID : 1
Format : AVC
Format/Info : Advanced Video Codec
Format profile : [email protected]
Format settings, CABAC : Yes
Format settings, ReFrames : 4 frames
Format settings, GOP : N=1
Codec ID : V_MPEG4/ISO/AVC
Duration : 10mn 53s
Bit rate : 15.0 Mbps
Width : 1 920 pixels
Height : 1 080 pixels
Display aspect ratio : 16:9
Frame rate : 23.976 fps
Color space : YUV
Chroma subsampling : 4:2:0
Bit depth : 8 bits
Scan type : Progressive
Bits/(Pixel*Frame) : 0.303
Stream size : 1.15 GiB (96%)
Title : BDrip by ash61
Writing library : x264 core 113 r1884 7313bb5
Encoding settings : cabac=1 / ref=4 / deblock=1:-3:-3 / analyse=0x3:0x113 / me=umh / subme=9 / psy=1 / psy_rd=1.00:0.15 / mixed_ref=1 / me_range=16 / chroma_me=1 / trellis=2 / 8x8dct=1 / cqm=0 / deadzone=21,11 / fast_pskip=1 / chroma_qp_offset=-3 / threads=3 / sliced_threads=0 / nr=0 / decimate=1 / interlaced=0 / constrained_intra=0 / bframes=6 / b_pyramid=2 / b_adapt=2 / b_bias=0 / direct=3 / weightb=1 / open_gop=0 / weightp=2 / keyint=250 / keyint_min=23 / scenecut=40 / intra_refresh=0 / rc_lookahead=60 / rc=crf / mbtree=1 / crf=18.0 / qcomp=0.60 / qpmin=10 / qpmax=51 / qpstep=4 / ip_ratio=1.40 / aq=1:1.00
Audio
ID : 2
Format : AC-3
Format/Info : Audio Coding 3
Mode extension : CM (complete main)
Codec ID : A_AC3
Duration : 10mn 53s
Bit rate mode : Constant
Bit rate : 256 Kbps
Channel(s) : 2 channels
Channel positions : Front: L R
Sampling rate : 48.0 KHz
Bit depth : 16 bits
Compression mode : Lossy
Stream size : 20.0 MiB (2%)
Language : English
Menu
00:00:00.000 : :Baloon Festival!
00:03:10.315 : :Canadian Scenery
00:06:48.283 : :Golf
MediaInfo Файла #2
General
UniqueID : 198209931813222176106560256864346138780 (0x951DD823BE5AF790A58C1901D9BB689C)
Complete name : F:\Downloads\SamsungDemoVol3(3D)2011.halfOU(ash61)\SamsungDemoVol3(3D)2011.halfOU(ash61)-6ch.mkv
Format : Matroska
File size : 1.15 GiB
Duration : 9mn 18s
Overall bit rate : 17.7 Mbps
Movie name : Samsung Demo 3D (v.3) 2011 (ash61)
Encoded date : UTC 2012-04-16 20:38:34
Writing application : mkvmerge v3.4.0 ('Rapunzel') сборка от May 15 2010 09:38:20
Writing library : libebml v0.8.0 + libmatroska v0.9.0
Video
ID : 1
Format : AVC
Format/Info : Advanced Video Codec
Format profile : [email protected]
Format settings, CABAC : Yes
Format settings, ReFrames : 4 frames
Codec ID : V_MPEG4/ISO/AVC
Duration : 9mn 18s
Bit rate : 16.7 Mbps
Width : 1 920 pixels
Height : 1 080 pixels
Display aspect ratio : 16:9
Frame rate : 23.976 fps
Color space : YUV
Chroma subsampling : 4:2:0
Bit depth : 8 bits
Scan type : Progressive
Bits/(Pixel*Frame) : 0.336
Stream size : 1.09 GiB (94%)
Title : BDrip by ash61
Writing library : x264 core 113 r1884 7313bb5
Encoding settings : cabac=1 / ref=4 / deblock=1:-3:-3 / analyse=0x3:0x113 / me=umh / subme=9 / psy=1 / psy_rd=1.00:0.15 / mixed_ref=1 / me_range=16 / chroma_me=1 / trellis=2 / 8x8dct=1 / cqm=0 / deadzone=21,11 / fast_pskip=1 / chroma_qp_offset=-3 / threads=3 / sliced_threads=0 / nr=0 / decimate=1 / interlaced=0 / constrained_intra=0 / bframes=6 / b_pyramid=2 / b_adapt=2 / b_bias=0 / direct=3 / weightb=1 / open_gop=0 / weightp=2 / keyint=250 / keyint_min=23 / scenecut=40 / intra_refresh=0 / rc_lookahead=60 / rc=crf / mbtree=1 / crf=18.0 / qcomp=0.60 / qpmin=10 / qpmax=51 / qpstep=4 / ip_ratio=1.40 / aq=1:1.00
Audio
ID : 2
Format : AC-3
Format/Info : Audio Coding 3
Mode extension : CM (complete main)
Codec ID : A_AC3
Duration : 9mn 18s
Bit rate mode : Constant
Bit rate : 640 Kbps
Channel(s) : 6 channels
Channel positions : Front: L C R, Side: L R, LFE
Sampling rate : 48.0 KHz
Bit depth : 16 bits
Compression mode : Lossy
Stream size : 42.6 MiB (4%)
Language : English
Menu
00:00:00.000 : :Grand Canyon
00:02:38.783 : :Jazz Festival
00:05:29.954 : :Niagara Falls
Скриншоты



Вернуться к началу
 Профиль Отправить личное сообщение  
 
   Похожие торренты   Автор   Торрент   Размер 
В этой теме нет новых непрочитанных сообщений. [DorcelClub.com] Jessie Volt - Half Angel Half Succubus (25.11.2017) [2017 г., All Sex, Hardcore, 1080p]

salma3

30 | 10

506.33 МБ

В этой теме нет новых непрочитанных сообщений. Полусвет / Half Light [ужасы, триллер, драма, 2006] BDRip 720p, Mvo

salma3

97 | 7

4.28 ГБ

В этой теме нет новых непрочитанных сообщений. Ни жив, ни мертв / Half Past Dead [боевик, триллер, криминал, 2002] BDRip, Dub

salma3

111 | 33

1.46 ГБ

В этой теме нет новых непрочитанных сообщений. FIFA 16 [Sport (Soccer), 3D, 2015] [Demo]

Dracon

1232 | 55

3.65 ГБ

В этой теме нет новых непрочитанных сообщений. Pro Evolution Soccer 2016 [Simulator, 2015] [Demo]

Dracon

114 | 15

1.54 ГБ

В этой теме нет новых непрочитанных сообщений. Pro Evolution Soccer 2016 [Simulator, 2015] PS3 [Demo]

Dracon

288 | 64

1.5 ГБ

В этой теме нет новых непрочитанных сообщений. Outlast 2 [v.1.0] [Action, Adventure, Survival, 2016] [Demo]

PriZraK

20 | 7

9.39 ГБ


Начать новую тему Ответить на тему  [ 1 сообщение ] 




Для Мосгорсуда, Роскомнадзора и рекламодателей:: mosgorsud-torrent[собачка]yandex.ru
cron