Торрент файл
скачать торрент магнет ссылка Добавлен: 07 окт 2012, 21:24
Размер: 9.74 ГБ
Сидеров: 3
Личеров: 2
Автор

СообщениеДобавлено: 07 окт 2012, 21:24 

Не в сети
Аватара пользователя
Дата регистрации:
28 ноя 2010, 22:22
Спасибо: 722 / 5
Сообщения: 2030
Пина: Танец страсти в 3D / Pina 3D
Год выпуска: 2011
Страна: Германия, Франция, Великобритания
Студия: Neue Road Movies, Eurowide Film Production, Zweites Deutsches Fernsehen (ZDF)
Жанр: Mюзикл
Продолжительность: 01:46:44
Перевод: Профессиональный (многоголосый закадровый) [лицензия]
Русские субтитры: есть
Режиссер на русском: Вим Вендерс
Режиссер на английском: Wim Wenders
В ролях: Реджина Адвенто, Малу Айродо, Рут Aмаранте, Пина Бауш, Райнер Бер, Андрей Березин, Дамиано Оттавио Биджи, Бенедикт Биллет, Алеш Чучек, Клементайн Дилай, Пабло Аран Гимено, Мехтильд Гроссманн, Сильвия Фария Эредия, Барбара Кауфман, Эдди Мартинез, Доминик Мерси, Морена Наскрименто, Франко Шмидт, Азуса Сеяма, Джули Шэнэхэн, Майкл Стрекер, Стефен Бринкман, М.С. Эстебан, Пол Хесс, Томоко Йамашита, Сергей Жуков, Энди Зондаг
Описание: «Пина» - это полнометражный фильм-танец в формате 3D с танцевальной труппой Wuppertal Пины Бауш, представляющий уникальное и вдохновляющее искусство великого немецкого хореографа, которая умерла летом 2009 года.Он захватывает аудиторию чувственным, визуально ошеломляющим путешествием, открывающим новое измерение: прямо на сцену с легендарной труппой, а затем следует за танцовщиками из театра в город и окрестности Вупперталя, который на протяжении 35 лет был ее домом.
Дополнительная информация по релизу: Стереоформат. Горизонтальная анаморфная стереопара (Half SideBySide). Просмотр рекомендован на специализированнном оборудовании: 3D blu-ray плеер (ps3) + 3D телевизор + 3D очки или с комплектом NVIDIA® 3D Vision™, способным обеспечить работу с 3D на ПК
Сэмпл: http://multi-up.com/575925
Качество: BDrip (1080p)
Контейнер: MKV
Формат 3D: Half SideBySide / Горизонтальная анаморфная стереопара
Порядок ракурсов: левый ракурс первый
Видео кодек: x264
Аудио кодек: AC3
Видео: MPEG-4 AVC, 12.4 Мбит/с, 1920x1080, 23.976 fps
Аудио: AC3, 6 ch, 448 Кбит/с, 48 KHz
Субтитры: Русские, английские
MediaInfo
General
Complete name : D:\Pina.Tanec.strasti.3D.2011.x264.BDRip.1080p.mkv
Format : Matroska
File size : 9.74 GiB
Duration : 1h 46mn
Overall bit rate : 13.1 Mbps
Movie name : PINA_3D_NFP.Title2.Bluray3DRip
Encoded date : UTC 2011-10-14 16:49:01
Writing application : mkvmerge v4.9.1 ('Ich will') built on Sep 21 2011 17:48:11
Writing library : libebml v1.2.1 + libmatroska v1.2.0
Video
ID : 1
Format : AVC
Format/Info : Advanced Video Codec
Format profile : [email protected]
Format settings, CABAC : Yes
Format settings, ReFrames : 2 frames
Muxing mode : Container [email protected]
Codec ID : V_MPEG4/ISO/AVC
Duration : 1h 46mn
Bit rate : 12.4 Mbps
Width : 1 920 pixels
Height : 1 080 pixels
Display aspect ratio : 16:9
Frame rate : 23.976 fps
Resolution : 8 bits
Colorimetry : 4:2:0
Scan type : Progressive
Bits/(Pixel*Frame) : 0.249
Stream size : 9.21 GiB (94%)
Writing library : x264 core
Color primaries : BT.709-5, BT.1361, IEC 61966-2-4, SMPTE RP177
Transfer characteristics : BT.709-5, BT.1361
Matrix coefficients : BT.709-5, BT.1361, IEC 61966-2-4 709, SMPTE RP177
Audio
ID : 2
Format : AC-3
Format/Info : Audio Coding 3
Codec ID : A_AC3
Duration : 1h 46mn
Bit rate mode : Constant
Bit rate : 448 Kbps
Channel(s) : 6 channels
Channel positions : Front: L C R, Surround: L R, LFE
Sampling rate : 48.0 KHz
Video delay : 6ms
Stream size : 342 MiB (3%)
Title : MVO R5
Language : Russian
Text #1
ID : 3
Format : UTF-8
Codec ID : S_TEXT/UTF8
Codec ID/Info : UTF-8 Plain Text
Language : Russian
Text #2
ID : 4
Format : UTF-8
Codec ID : S_TEXT/UTF8
Codec ID/Info : UTF-8 Plain Text
Скриншоты



Вернуться к началу
 Профиль Отправить личное сообщение  
 
   Похожие торренты   Автор   Торрент   Размер 
В этой теме нет новых непрочитанных сообщений. Танец смерти / Slam Dance [триллер, детектив, 1987] BDRip, Dvo [НТВ+]

salma3

0 | 0

1.45 ГБ

В этой теме нет новых непрочитанных сообщений. Танец реальности / La danza de la realidad [фэнтези, драма, биография, 2013] BDRip, Mvo+Sub

salma3

5 | 3

2.18 ГБ

В этой теме нет новых непрочитанных сообщений. Темная сторона страсти / In the Cut [триллер, детектив, 2003] BDRip 1080p, Mvo

salma3

30 | 17

11.04 ГБ

В этой теме нет новых непрочитанных сообщений. Страсти Христовы / The Passion of the Christ [драма, 2004] BDRip 720p, Mvo

salma3

0 | 1

9.6 ГБ

В этой теме нет новых непрочитанных сообщений. Страсти Христовы / The Passion of the Christ [Драма, история, 2004] BDRip 720p, Mvo [60 fps]

salma3

5 | 1

10.98 ГБ

В этой теме нет новых непрочитанных сообщений. Игры страсти / Passion Play [фэнтези, драма, мелодрама, 2010] BDRip 1080p, Mvo+Sub

salma3

73 | 50

8.21 ГБ

В этой теме нет новых непрочитанных сообщений. Преступление на почве страсти / Crimes of Passion [триллер, драма, мелодрама, 1984] BDRip 720p, Mvo

salma3

1 | 2

4.98 ГБ


Начать новую тему Ответить на тему  [ 1 сообщение ] 




Для Мосгорсуда, Роскомнадзора и рекламодателей:: mosgorsud-torrent[собачка]yandex.ru
cron