Торрент файл
скачать торрент магнет ссылка Добавлен: 07 окт 2012, 21:24
Размер: 365.23 МБ
Сидеров: 74
Личеров: 20
Автор

СообщениеДобавлено: 07 окт 2012, 21:24 

Не в сети
Аватара пользователя
Дата регистрации:
28 ноя 2010, 22:22
Спасибо: 722 / 5
Сообщения: 2030
LG 3D DEMO Global / LG 3D DEMO Global
Год выпуска: 2011
Страна: Корея
Жанр: демо
Продолжительность: 00.09.20
Перевод: Не требуется
Русские субтитры: нет
Описание: Ролики предназначены для показа в магазинах электроники в качестве рекламы новых телевизоров LG 3D Cinema. Отлично подойдут для демонстрации друзьям и знакомым преимуществ вашего нового 3D телевизора
Качество: BDrip
Контейнер: mp4
Формат 3D: Half SideBySide / Горизонтальная анаморфная стереопара
Порядок ракурсов: левый ракурс первый
Видео кодек: MVC
Аудио кодек: AAC
Видео: AVC at 5316 Кбит/сек 1920 x 1080 (1.778) at 23.976 fps
Аудио: AAC at 151 Кбит/сек 2 канала, 44,1 КГц
MediaInfo
Общее
Полное имя : C:\Users\Dima\Downloads\LG 3D DEMO Global.mp4
Формат : MPEG-4
Профиль формата : Base Media / Version 2
Идентификатор кодека : mp42
Размер файла : 365 Мбайт
Продолжительность : 9 м. 20 с.
Режим общего битрейта : Переменный
Общий поток : 5470 Кбит/сек
Дата кодирования : UTC 2011-12-10 22:06:50
Дата пометки : UTC 2011-12-10 22:06:50
gsst : 0
gstd : 560180
gssd : BD0419A83MH1326906337573989
gshh : r9.par03g07.c.youtube.com
Видео
Идентификатор : 1
Формат : AVC
Формат/Информация : Advanced Video Codec
Профиль формата : [email protected]
Параметр CABAC формата : Да
Параметр ReFrames формата : 1 кадр
Параметр GOP формата : M=1, N=24
Идентификатор кодека : avc1
Идентификатор кодека/Информация : Advanced Video Coding
Продолжительность : 9 м. 20 с.
Битрейт : 5316 Кбит/сек
Максимальный битрейт : 14,3 Мбит/сек
Ширина : 1920 пикселей
Высота : 1080 пикселей
Соотношение сторон : 16:9
Режим частоты кадров : Постоянный
Частота кадров : 23,976 кадра/сек
Цветовое пространство : YUV
Субдискретизация насыщенности : 4:2:0
Битовая глубина : 8 бит
Тип развёртки : Прогрессивная
Бит/(Пиксели*Кадры) : 0.107
Размер потока : 355 Мбайт (97%)
Дата пометки : UTC 2011-12-10 22:06:52
Аудио
Идентификатор : 2
Формат : AAC
Формат/Информация : Advanced Audio Codec
Профиль формата : LC
Идентификатор кодека : 40
Продолжительность : 9 м. 20 с.
Вид битрейта : Переменный
Битрейт : 151 Кбит/сек
Максимальный битрейт : 226 Кбит/сек
Каналы : 2 канала
Расположение каналов : Front: L R
Частота : 44,1 КГц
Метод сжатия : С потерями
Размер потока : 10,1 Мбайт (3%)
Заголовок : IsoMedia File Produced by Google, 5-11-2011
Дата кодирования : UTC 2011-12-10 22:06:51
Дата пометки : UTC 2011-12-10 22:06:52
Скриншоты



Вернуться к началу
 Профиль Отправить личное сообщение  
 
   Похожие торренты   Автор   Торрент   Размер 
В этой теме нет новых непрочитанных сообщений. [DorcelClub.com] Jessie Volt - Half Angel Half Succubus (25.11.2017) [2017 г., All Sex, Hardcore, 1080p]

salma3

30 | 10

506.33 МБ

В этой теме нет новых непрочитанных сообщений. Katherine Global (2015) HD 720p

Dile-1

12 | 52

767.12 МБ

В этой теме нет новых непрочитанных сообщений. FIFA 16 [Sport (Soccer), 3D, 2015] [Demo]

Dracon

1232 | 55

3.65 ГБ

В этой теме нет новых непрочитанных сообщений. Outlast 2 [v.1.0] [Action, Adventure, Survival, 2016] [Demo]

PriZraK

20 | 7

9.39 ГБ

В этой теме нет новых непрочитанных сообщений. Tanida Demo Builder v11.0.18.0 (2017) PC | RePack by 78Sergey

salma3

16 | 1

76.66 МБ

В этой теме нет новых непрочитанных сообщений. Global Warming Debutantes 1,2,3,4,5,6,7,9,10,12,13,21,22,28,34,37 (Ed Powers, 4-Play Video) [1997 г., All Sex, WEB-DL]

salma3

11 | 4

24.17 ГБ

В этой теме нет новых непрочитанных сообщений. Counter-Strike: Global Offensive [AutoUpdater] [Action, 2015] [Steam-Rip]

egorka2

89 | 1

4.47 ГБ


Начать новую тему Ответить на тему  [ 1 сообщение ] 




Для Мосгорсуда, Роскомнадзора и рекламодателей:: mosgorsud-torrent[собачка]yandex.ru
cron