Торрент файл
скачать торрент магнет ссылка Добавлен: 07 окт 2012, 21:24
Размер: 3.87 ГБ
Сидеров: 2
Личеров: 3
Автор

СообщениеДобавлено: 07 окт 2012, 21:24 

Не в сети
Аватара пользователя
Дата регистрации:
28 ноя 2010, 22:22
Спасибо: 722 / 5
Сообщения: 2030
Моцарт: Квинтет для кларнета, K.581 / Horn Quintet, K.407 / String Quartet, K.169
Год выпуска: 2010
Страна: США Филадельфия
Жанр: Классическая музыка
Продолжительность: 01:03:00
Перевод: Не требуется
Русские субтитры: нет
Исполнители: Corey Klein (Horn), Ruokai Chen (Clarinet), The Old City String Quartet
Описание: Один из 3D-альбомов музыки ™, который мы сняли в в июне 2010 года. Победители конкурса - струнный квартет Старый Город. Эта молодая группа состоит из недавних выпускников престижных Институтов музыки Кертиса в Филадельфии. Их молодость и энергия удивительны. Это один из первых классических проектов для Blu-ray 3D.К квартету присоединились два парня, кларнетист Ruokai Чен и труба Кори Клейна.
Музыка Моцарта является знаком большинству любителей музыки, и, хотя очень доступна для всех, полна убедительных гармонической и композиционной сложности.
Этот диск был снят с использованием 3D-камер и совместимых Blu-ray 3D ™, но полностью совместим с 2D-телевизороми и аудио оборудованием.
Качество: BDrip
Контейнер: MKV
Формат 3D: Half OverUnder / Вертикальная анаморфная стереопара
Порядок ракурсов: левый ракурс первый
Видео кодек: x264
Аудио кодек: AC3
Видео: AVC / 1280х720p / 59.94 fps / 8,126 Мbps
Аудио: Музыка / AC3 / 48 KHz / 5.1 ch / 448 Kbps (оригинал)
MediaInfo
General
Complete name : D:\скачка\torrent\Mozart _Clarinet_Quintet _K._5.edis.3d-tracker.ru.mkv
Format : Matroska
File size : 3.87 GiB
Duration : 1h 3mn
Overall bit rate : 8 748 Kbps
Movie name : Mozart Clarinet Quintet K. 5.edis.3d-tracker.ru.Bluray3DRip
Encoded date : UTC 2012-07-28 18:16:12
Writing application : mkvmerge v4.2.0 ('3d-tracker') сборка от Jul 28 2010 18:38:23
Writing library : libebml v1.0.0 + libmatroska v1.0.0
Video
ID : 1
Format : AVC
Format/Info : Advanced Video Codec
Format profile : [email protected]
Format settings, CABAC : Yes
Format settings, ReFrames : 2 frames
Muxing mode : Container [email protected]
Codec ID : V_MPEG4/ISO/AVC
Duration : 1h 3mn
Bit rate : 8 126 Kbps
Width : 1 280 pixels
Height : 720 pixels
Display aspect ratio : 16:9
Frame rate : 59.940 fps
Resolution : 24 bits
Colorimetry : 4:2:0
Scan type : Progressive
Bits/(Pixel*Frame) : 0.147
Stream size : 3.59 GiB (93%)
Title : edis.3d-tracker.ru
Writing library : x264 core
Audio
ID : 2
Format : AC-3
Format/Info : Audio Coding 3
Codec ID : A_AC3
Duration : 1h 3mn
Bit rate mode : Constant
Bit rate : 448 Kbps
Channel(s) : 6 channels
Channel positions : Front: L C R, Surround: L R, LFE
Sampling rate : 48.0 KHz
Stream size : 203 MiB (5%)
Title : edis.3d-tracker.ru
Menu
00:00:00.000 : en:(01)00:00:00:000
Скриншоты



Вернуться к началу
 Профиль Отправить личное сообщение  
 
   Похожие торренты   Автор   Торрент   Размер 
В этой теме нет новых непрочитанных сообщений. Моцарт в джунглях / Mozart in the Jungle [2 сезон 1-10 серии из 10] [Комедия, музыка, 2015] HDTVRip [Ozz]

Dracon

4 | 6

3.2 ГБ

В этой теме нет новых непрочитанных сообщений. Моцарт в джунглях / Mozart in the Jungle [s02] [комедия, музыка, 2015] WEBRip 720p, Mvo [AlexFilm]

Dracon

86 | 33

5.41 ГБ

В этой теме нет новых непрочитанных сообщений. Моцарт в джунглях / Mozart in the Jungle [S01-03] (драма, комедия, музыка, 2014-2016) WEB-DLRip | AlexFilm

marya111

24 | 26

9.58 ГБ

В этой теме нет новых непрочитанных сообщений. Моцарт – навсегда / For Ever Mozart [драма, 1996] BDRip 720p, Dvo+Sub

salma3

32 | 15

4.96 ГБ

В этой теме нет новых непрочитанных сообщений. Tord Gustavsen Quartet - Extended Circle [2014, Jazz, MP3]

salma3

0 | 1

117.66 МБ

В этой теме нет новых непрочитанных сообщений. Приди и протруби в свой рог / Come Blow Your Horn [мюзикл, комедия, 1963] HDRip, Mvo

salma3

37 | 11

1.45 ГБ

В этой теме нет новых непрочитанных сообщений. Отголоски / Efterskalv (Магнус фон Хорн / Magnus von Horn) [2015г., Швеция, драма, HDTVRip] sub

Alfredovich

1 | 0

1.45 ГБ


Начать новую тему Ответить на тему  [ 1 сообщение ] 




Для Мосгорсуда, Роскомнадзора и рекламодателей:: mosgorsud-torrent[собачка]yandex.ru
cron