Торрент файл
скачать торрент магнет ссылка Добавлен: 07 окт 2012, 21:23
Размер: 557.47 МБ
Сидеров: 6
Личеров: 3
Автор

СообщениеДобавлено: 07 окт 2012, 21:23 

Не в сети
Аватара пользователя
Дата регистрации:
28 ноя 2010, 22:22
Спасибо: 722 / 5
Сообщения: 2030
Киев. София Киевская. Софиевская площадь. Михайловский собор в 3D. / Kyiv-Sophia Cathedral Architecture monument 18th c.
Год выпуска: 2011
Страна: Украина
Студия: 3dvization
Жанр: Обзфорный фильм
Продолжительность: 0:03:52
фПеревод: Не требуется
Русские субтитры: нет
Режиссер на русском: Валерий Шрамко
Описание: Небольшая зарисовка о Софиевском соборе и прилегающих к нему площадях - Михайловская площадь, Михайловский Собор, Софиевская площадь, памятник Богдану Хмельницкому. 3D cъемка проводилась в хороший солнечный день. На проф. 3D видеооборудование.
Большая просьба прокоментировать просмотренное видео
Качество: hdtvrip
Контейнер: mp4
Формат 3D: Half SideBySide / Горизонтальная анаморфная стереопара
Порядок ракурсов: левый ракурс первый
Видео кодек: h.264
Аудио кодек: AAC
Видео: PAL 1920*1080 16:9 30mbit
Аудио: AC3 128kbps / 48khz / 2ch
Скриншоты





General
Complete name : F:\Downloads\side_side_best_01+muz_for_torrent.mp4
Format : MPEG-4
Codec ID : M4V
File size : 557 MiB
Duration : 3mn 52s
Overall bit rate : 20.1 Mbps
Encoded date : UTC 2011-06-30 16:36:18
Tagged date : UTC 2011-06-30 16:36:18
©TIM : 00:24:54:14
©TSC : 25
©TSZ : 1
Video
ID : 1
Format : AVC
Format/Info : Advanced Video Codec
Format profile : [email protected]
Format settings, CABAC : No
Format settings, ReFrames : 2 frames
Codec ID : avc1
Codec ID/Info : Advanced Video Coding
Duration : 3mn 52s
Bit rate mode : Variable
Bit rate : 20.0 Mbps
Width : 1 920 pixels
Height : 1 080 pixels
Display aspect ratio : 16:9
Frame rate mode : Constant
Frame rate : 25.000 fps
Standard : PAL
Color space : YUV
Chroma subsampling : 4:2:0
Bit depth : 8 bits
Scan type : Progressive
Bits/(Pixel*Frame) : 0.386
Stream size : 554 MiB (99%)
Language : English
Encoded date : UTC 2011-06-30 16:36:18
Tagged date : UTC 2011-06-30 16:36:18
Audio
ID : 2
Format : AAC
Format/Info : Advanced Audio Codec
Format profile : LC
Codec ID : 40
Duration : 3mn 52s
Bit rate mode : Variable
Bit rate : 125 Kbps
Maximum bit rate : 184 Kbps
Channel(s) : 2 channels
Channel positions : Front: L R
Sampling rate : 48.0 KHz
Compression mode : Lossy
Stream size : 3.47 MiB (1%)
Language : English
Encoded date : UTC 2011-06-30 16:36:18
Tagged date : UTC 2011-06-30 16:36:18



Вернуться к началу
 Профиль Отправить личное сообщение  
 
   Похожие торренты   Автор   Торрент   Размер 
В этой теме нет новых непрочитанных сообщений. София / София Палеолог [01-06 из 8] ( Мелодрама, исторический, 2016) HDTVRip-AVC от ExKinoRay

marya111

435 | 288

4.37 ГБ

В этой теме нет новых непрочитанных сообщений. София / София Палеолог [01-04 из 8] (Мелодрама, исторический, 2016) HDTVRip-AVC от ExKinoRay

marya111

138 | 76

2.91 ГБ

В этой теме нет новых непрочитанных сообщений. София / София Палеолог [01-08 из 08] (2016) HDTVRip-AVC от ExKinoRay

marya111

572 | 147

5.73 ГБ

В этой теме нет новых непрочитанных сообщений. София (София Палеолог) / Sofia (Серии 1-8 из 8) (Алексей Андрианов) [2016, Мелодрама, исторический , HDTVRipi 1080p] [DD5.1]

Враг Нароода

6 | 9

24.28 ГБ

В этой теме нет новых непрочитанных сообщений. София / София Палеолог [01-08 из 08] (2016) WEB-DLRip от GeneralFilm

marya111

1160 | 339

3.47 ГБ

В этой теме нет новых непрочитанных сообщений. [EvilAngel.com] Sophia Leone ( Young, Busty Sophia's 11-Inch BBC) [2017 г., Gonzo Hardcore IR]

salma3

14 | 5

562.35 МБ

В этой теме нет новых непрочитанных сообщений. [EvilAngel.com] Sophia Grace( Young Sophia Loves Filthy Anal Reaming) [2017 г., Gonzo Hardcore ]

salma3

25 | 8

609.34 МБ


Начать новую тему Ответить на тему  [ 1 сообщение ] 




Для Мосгорсуда, Роскомнадзора и рекламодателей:: mosgorsud-torrent[собачка]yandex.ru
cron