Торрент файл
скачать торрент магнет ссылка Добавлен: 07 окт 2012, 21:22
Размер: 43.78 ГБ
Сидеров: 5
Личеров: 4
Автор

СообщениеДобавлено: 07 окт 2012, 21:22 

Не в сети
Аватара пользователя
Дата регистрации:
28 ноя 2010, 22:22
Спасибо: 722 / 5
Сообщения: 2030
Peter Gabriel: New Blood - Live in London 3D
Год выпуска: 2011
Выпущено: Eagle Rock Entertainment
Жанр: Rock
Продолжительность: 02:09:23
Описание: Filmed at Hammersmith Apollo in March of this year, New Blood Live In London captures Peter Gabriel performing live with the 46 piece New Blood Orchestra. The repertoire mixes cover versions from his Scratch My Back album with classic tracks from across his solo career in brand new orchestral arrangements.
Треклист:
01. Intruder
02. Wallflower
03. The Boy In The Bubble
04. Apres Moi
05. The Drop
06. Washing Of The Water (2D disc only)
07. The Book Of Love
08. Darkness
09. The Power Of The Heart
10. Biko
11. San Jacinto
12. Digging In The Dirt
13. Signal To Noise
14. Downside Up
15. Mercy Street
16. The Rhythm Of The Heat
17. Blood Of Eden
18. Red Rain
19. Solsbury Hill
20. In Your Eyes
21. Don't Give Up
22. The Nest That Sailed The Sky
Качество: Blu-ray 3D
Контейнер: ISO
Видео кодек: MVC
Аудио кодек: DTS, PCM, AC3
Видео: 1920x1080p, MPEG-4 AVC, 23,976 fps, ~25500 Kbps
Аудио №1: English LPCM 2.0 (48 kHz / 1536 kbps / 16-bit)
Аудио №2: English Dolby Digital Audio 5.1 (48 kHz / 640 kbps)
Аудио №3: English DTS-HD MA 5.1 (48 kHz / 2579 kbps / 16-bit)
BDInfo
Код:
Disc Title:EAGLE_ROCK_PETER_GABRIEL
Disc Size:47 002 162 953 bytes
Protection:AACS
BD-Java:No
Extras:Blu-ray 3D
BDInfo:0.5.6
Notes:
BDINFO HOME:
Cinema Squid
[url=http://www.cinemasquid.com/blu-ray/tools/bdinfo]http://www.cinemasquid.com/blu-ray/tools/bdinfo[/url]
INCLUDES FORUMS REPORT FOR:
AVS Forum Blu-ray Audio and Video Specifications Thread
[url=http://www.avsforum.com/avs-vb/showthread.php?t=1155731]http://www.avsforum.com/avs-vb/showthread.php?t=1155731[/url]
********************
PLAYLIST: 00003.MPLS
********************
<--- BEGIN FORUMS PASTE --->
Код:
Код:
Total   Video
Title                                                           Codec   Length  Movie Size      Disc Size       Bitrate Bitrate Main Audio Track                          Secondary Audio Track
-----                                                           ------  ------- --------------  --------------  ------- ------- ------------------                        ---------------------
00003.MPLS                                                      AVC     2:09:23 29 623 302 144  47 002 162 953  30,53   23,92   DTS-HD Master 5.1 2579Kbps (48kHz/16-bit) DD AC3 5.1 640Kbps

Код:
Код:
DISC INFO:
Disc Title:     EAGLE_ROCK_PETER_GABRIEL
Disc Size:      47 002 162 953 bytes
Protection:     AACS
BD-Java:        No
Extras:         Blu-ray 3D
BDInfo:         0.5.6
PLAYLIST REPORT:
Name:                   00003.MPLS
Length:                 2:09:23 (h:m:s)
Size:                   29 623 302 144 bytes
Total Bitrate:          30,53 Mbps
VIDEO:
Codec                   Bitrate             Description
-----                   -------             -----------
MPEG-4 AVC Video        23923 kbps          1080p / 23,976 fps / 16:9 / High Profile 4.1
AUDIO:
Codec                           Language        Bitrate         Description
-----                           --------        -------         -----------
DTS-HD Master Audio             English         2579 kbps       5.1 / 48 kHz / 2579 kbps / 16-bit (DTS Core: 5.1 / 48 kHz / 1509 kbps / 16-bit)
Dolby Digital Audio             English         640 kbps        5.1 / 48 kHz / 640 kbps
LPCM Audio                      English         1536 kbps       2.0 / 48 kHz / 1536 kbps / 16-bit
FILES:
Name            Time In         Length          Size            Total Bitrate
----            -------         ------          ----            -------------
00002.M2TS      0:00:00.000     1:04:55.308     14 856 222 720  30 511
00004.M2TS      1:04:55.308     1:04:27.697     14 767 079 424  30 544
CHAPTERS:
Number          Time In         Length          Avg Video Rate  Max 1-Sec Rate  Max 1-Sec Time  Max 5-Sec Rate  Max 5-Sec Time  Max 10Sec Rate  Max 10Sec Time  Avg Frame Size  Max Frame Size  Max Frame Time
------          -------         ------          --------------  --------------  --------------  --------------  --------------  --------------  --------------  --------------  --------------  --------------
1               0:00:00.000     0:05:47.347     23 739 kbps     43 281 kbps     00:01:59.202    29 397 kbps     00:02:18.221    28 385 kbps     00:03:05.101    123 752 bytes   399 402 bytes   00:03:24.287
2               0:05:47.347     0:07:02.588     23 283 kbps     36 436 kbps     00:07:00.336    29 310 kbps     00:10:59.659    26 679 kbps     00:12:06.976    121 388 bytes   353 083 bytes   00:07:28.948
3               0:12:49.935     0:04:28.226     23 957 kbps     33 018 kbps     00:14:24.405    29 256 kbps     00:13:00.237    27 023 kbps     00:13:00.237    124 902 bytes   360 893 bytes   00:15:19.251
4               0:17:18.162     0:05:26.367     25 191 kbps     41 261 kbps     00:17:22.541    31 660 kbps     00:20:45.827    31 029 kbps     00:20:45.827    131 334 bytes   763 054 bytes   00:17:22.708
5               0:22:44.529     0:02:54.215     24 751 kbps     34 846 kbps     00:24:04.943    30 698 kbps     00:24:04.359    29 301 kbps     00:24:15.036    129 038 bytes   319 026 bytes   00:25:08.840
6               0:25:38.745     0:03:53.608     24 508 kbps     35 139 kbps     00:27:45.038    29 623 kbps     00:27:58.843    28 030 kbps     00:27:58.843    127 774 bytes   378 371 bytes   00:27:45.747
7               0:29:32.353     0:06:25.802     24 044 kbps     39 464 kbps     00:35:01.182    29 645 kbps     00:34:42.038    27 074 kbps     00:34:41.954    125 354 bytes   410 209 bytes   00:31:14.080
8               0:35:58.156     0:06:30.681     24 415 kbps     35 675 kbps     00:40:40.688    29 727 kbps     00:39:37.041    28 908 kbps     00:39:32.995    127 288 bytes   345 682 bytes   00:39:36.207
9               0:42:28.837     0:06:41.109     23 493 kbps     33 629 kbps     00:44:15.903    30 156 kbps     00:45:49.538    28 374 kbps     00:45:47.119    122 484 bytes   344 231 bytes   00:48:32.701
10              0:49:09.947     0:07:32.201     23 551 kbps     35 545 kbps     00:53:38.423    31 118 kbps     00:53:34.961    30 406 kbps     00:53:29.956    122 784 bytes   510 985 bytes   00:50:09.297
11              0:56:42.148     0:05:40.590     24 493 kbps     36 801 kbps     00:59:50.003    30 880 kbps     00:59:56.801    28 314 kbps     00:59:56.634    127 698 bytes   542 059 bytes   00:59:50.211
12              1:02:22.738     0:08:32.011     23 408 kbps     42 288 kbps     01:09:26.745    30 038 kbps     01:03:26.135    28 627 kbps     01:03:46.239    122 039 bytes   408 290 bytes   01:09:27.204
13              1:10:54.750     0:06:00.610     23 925 kbps     35 214 kbps     01:13:19.770    27 828 kbps     01:14:04.940    25 824 kbps     01:11:49.221    124 734 bytes   406 166 bytes   01:11:59.231
14              1:16:55.360     0:06:13.706     24 226 kbps     34 510 kbps     01:20:06.426    28 030 kbps     01:21:57.120    27 407 kbps     01:21:57.120    126 305 bytes   390 524 bytes   01:23:08.817
15              1:23:09.067     0:06:10.536     24 438 kbps     40 476 kbps     01:27:39.212    28 523 kbps     01:26:17.422    28 066 kbps     01:23:16.241    127 411 bytes   544 810 bytes   01:27:39.337
16              1:29:19.604     0:06:05.198     23 570 kbps     36 485 kbps     01:35:16.168    27 944 kbps     01:32:23.746    25 943 kbps     01:32:23.579    122 884 bytes   398 809 bytes   01:35:17.044
17              1:35:24.802     0:05:20.820     24 042 kbps     35 993 kbps     01:39:50.734    27 626 kbps     01:35:24.802    25 989 kbps     01:38:24.940    125 342 bytes   367 391 bytes   01:39:06.231
18              1:40:45.622     0:06:08.951     24 117 kbps     42 087 kbps     01:46:43.605    27 982 kbps     01:42:21.969    26 280 kbps     01:42:20.717    125 737 bytes   440 128 bytes   01:40:59.261
19              1:46:54.574     0:08:13.784     23 952 kbps     36 782 kbps     01:46:57.869    28 736 kbps     01:47:41.997    27 085 kbps     01:46:57.869    124 873 bytes   369 607 bytes   01:46:57.911
20              1:55:08.359     0:07:41.419     24 085 kbps     35 468 kbps     02:01:27.405    28 241 kbps     01:55:33.426    26 456 kbps     02:00:50.701    125 570 bytes   328 780 bytes   02:01:21.524
21              2:02:49.779     0:06:33.226     22 458 kbps     33 710 kbps     02:04:46.187    29 632 kbps     02:05:02.786    26 339 kbps     02:05:01.493    117 098 bytes   759 965 bytes   02:07:01.488
STREAM DIAGNOSTICS:
File            PID             Type            Codec           Language                Seconds                 Bitrate                 Bytes           Packets
----            ---             ----            -----           --------                --------------          --------------          -------------   -----
00002.M2TS      4113 (0x1011)   0x1B            AVC                                     3895,225                23 998                  11 684 594 944  63 558 267
00002.M2TS      4352 (0x1100)   0x80            LPCM            eng (English)           3895,225                1 542                   751 015 768     4 674 372
00002.M2TS      4353 (0x1101)   0x81            AC3             eng (English)           3895,225                640                     311 626 240     1 825 935
00002.M2TS      4354 (0x1102)   0x86            DTS-HD MA       eng (English)           3895,225                2 488                   1 211 342 708   7 187 159
00004.M2TS      4113 (0x1011)   0x1B            AVC                                     3867,614                23 848                  11 529 399 985  62 714 246
00004.M2TS      4352 (0x1100)   0x80            LPCM            eng (English)           3867,614                1 542                   745 692 560     4 641 240
00004.M2TS      4353 (0x1101)   0x81            AC3             eng (English)           3867,614                640                     309 416 960     1 812 990
00004.M2TS      4354 (0x1102)   0x86            DTS-HD MA       eng (English)           3867,614                2 671                   1 291 173 484   7 613 909

Код:
<---- END FORUMS PASTE ---->
QUICK SUMMARY:
Disc Title: EAGLE_ROCK_PETER_GABRIEL
Disc Size: 47 002 162 953 bytes
Protection: AACS
BD-Java: No
Playlist: 00003.MPLS
Size: 29 623 302 144 bytes
Length: 2:09:23
Total Bitrate: 30,53 Mbps
Video: MPEG-4 AVC Video / 23923 kbps / 1080p / 23,976 fps / 16:9 / High Profile 4.1
Audio: English / DTS-HD Master Audio / 5.1 / 48 kHz / 2579 kbps / 16-bit (DTS Core: 5.1 / 48 kHz / 1509 kbps / 16-bit)
Audio: English / Dolby Digital Audio / 5.1 / 48 kHz / 640 kbps
Audio: English / LPCM Audio / 2.0 / 48 kHz / 1536 kbps / 16-bit
********************
PLAYLIST: 00004.MPLS
********************
<--- BEGIN FORUMS PASTE --->
Код:
Код:
Total   Video
Title                                                           Codec   Length  Movie Size      Disc Size       Bitrate Bitrate Main Audio Track                          Secondary Audio Track
-----                                                           ------  ------- --------------  --------------  ------- ------- ------------------                        ---------------------
00004.MPLS                                                      AVC     2:09:23 29 623 302 144  47 002 162 953  30,53   23,92   DTS-HD Master 5.1 2579Kbps (48kHz/16-bit) DD AC3 5.1 640Kbps

Код:
Код:
DISC INFO:
Disc Title:     EAGLE_ROCK_PETER_GABRIEL
Disc Size:      47 002 162 953 bytes
Protection:     AACS
BD-Java:        No
Extras:         Blu-ray 3D
BDInfo:         0.5.6
PLAYLIST REPORT:
Name:                   00004.MPLS
Length:                 2:09:23 (h:m:s)
Size:                   29 623 302 144 bytes
Total Bitrate:          30,53 Mbps
VIDEO:
Codec                   Bitrate             Description
-----                   -------             -----------
MPEG-4 AVC Video        23923 kbps          1080p / 23,976 fps / 16:9 / High Profile 4.1
AUDIO:
Codec                           Language        Bitrate         Description
-----                           --------        -------         -----------
DTS-HD Master Audio             English         2579 kbps       5.1 / 48 kHz / 2579 kbps / 16-bit (DTS Core: 5.1 / 48 kHz / 1509 kbps / 16-bit)
Dolby Digital Audio             English         640 kbps        5.1 / 48 kHz / 640 kbps
LPCM Audio                      English         1536 kbps       2.0 / 48 kHz / 1536 kbps / 16-bit
FILES:
Name            Time In         Length          Size            Total Bitrate
----            -------         ------          ----            -------------
00002.M2TS      0:00:00.000     1:04:55.308     14 856 222 720  30 511
00004.M2TS      1:04:55.308     1:04:27.697     14 767 079 424  30 544
CHAPTERS:
Number          Time In         Length          Avg Video Rate  Max 1-Sec Rate  Max 1-Sec Time  Max 5-Sec Rate  Max 5-Sec Time  Max 10Sec Rate  Max 10Sec Time  Avg Frame Size  Max Frame Size  Max Frame Time
------          -------         ------          --------------  --------------  --------------  --------------  --------------  --------------  --------------  --------------  --------------  --------------
1               0:00:00.000     0:05:47.347     23 739 kbps     43 281 kbps     00:01:59.202    29 397 kbps     00:02:18.221    28 385 kbps     00:03:05.101    123 752 bytes   399 402 bytes   00:03:24.287
2               0:05:47.347     0:07:02.588     23 283 kbps     36 436 kbps     00:07:00.336    29 310 kbps     00:10:59.659    26 679 kbps     00:12:06.976    121 388 bytes   353 083 bytes   00:07:28.948
3               0:12:49.935     0:04:28.226     23 957 kbps     33 018 kbps     00:14:24.405    29 256 kbps     00:13:00.237    27 023 kbps     00:13:00.237    124 902 bytes   360 893 bytes   00:15:19.251
4               0:17:18.162     0:05:26.367     25 191 kbps     41 261 kbps     00:17:22.541    31 660 kbps     00:20:45.827    31 029 kbps     00:20:45.827    131 334 bytes   763 054 bytes   00:17:22.708
5               0:22:44.529     0:02:54.215     24 751 kbps     34 846 kbps     00:24:04.943    30 698 kbps     00:24:04.359    29 301 kbps     00:24:15.036    129 038 bytes   319 026 bytes   00:25:08.840
6               0:25:38.745     0:03:53.608     24 508 kbps     35 139 kbps     00:27:45.038    29 623 kbps     00:27:58.843    28 030 kbps     00:27:58.843    127 774 bytes   378 371 bytes   00:27:45.747
7               0:29:32.353     0:06:25.802     24 044 kbps     39 464 kbps     00:35:01.182    29 645 kbps     00:34:42.038    27 074 kbps     00:34:41.954    125 354 bytes   410 209 bytes   00:31:14.080
8               0:35:58.156     0:06:30.681     24 415 kbps     35 675 kbps     00:40:40.688    29 727 kbps     00:39:37.041    28 908 kbps     00:39:32.995    127 288 bytes   345 682 bytes   00:39:36.207
9               0:42:28.837     0:06:41.109     23 493 kbps     33 629 kbps     00:44:15.903    30 156 kbps     00:45:49.538    28 374 kbps     00:45:47.119    122 484 bytes   344 231 bytes   00:48:32.701
10              0:49:09.947     0:07:32.201     23 551 kbps     35 545 kbps     00:53:38.423    31 118 kbps     00:53:34.961    30 406 kbps     00:53:29.956    122 784 bytes   510 985 bytes   00:50:09.297
11              0:56:42.148     0:05:40.590     24 493 kbps     36 801 kbps     00:59:50.003    30 880 kbps     00:59:56.801    28 314 kbps     00:59:56.634    127 698 bytes   542 059 bytes   00:59:50.211
12              1:02:22.738     0:08:32.011     23 408 kbps     42 288 kbps     01:09:26.745    30 038 kbps     01:03:26.135    28 627 kbps     01:03:46.239    122 039 bytes   408 290 bytes   01:09:27.204
13              1:10:54.750     0:06:00.610     23 925 kbps     35 214 kbps     01:13:19.770    27 828 kbps     01:14:04.940    25 824 kbps     01:11:49.221    124 734 bytes   406 166 bytes   01:11:59.231
14              1:16:55.360     0:06:13.706     24 226 kbps     34 510 kbps     01:20:06.426    28 030 kbps     01:21:57.120    27 407 kbps     01:21:57.120    126 305 bytes   390 524 bytes   01:23:08.817
15              1:23:09.067     0:06:10.536     24 438 kbps     40 476 kbps     01:27:39.212    28 523 kbps     01:26:17.422    28 066 kbps     01:23:16.241    127 411 bytes   544 810 bytes   01:27:39.337
16              1:29:19.604     0:06:05.198     23 570 kbps     36 485 kbps     01:35:16.168    27 944 kbps     01:32:23.746    25 943 kbps     01:32:23.579    122 884 bytes   398 809 bytes   01:35:17.044
17              1:35:24.802     0:05:20.820     24 042 kbps     35 993 kbps     01:39:50.734    27 626 kbps     01:35:24.802    25 989 kbps     01:38:24.940    125 342 bytes   367 391 bytes   01:39:06.231
18              1:40:45.622     0:06:08.951     24 117 kbps     42 087 kbps     01:46:43.605    27 982 kbps     01:42:21.969    26 280 kbps     01:42:20.717    125 737 bytes   440 128 bytes   01:40:59.261
19              1:46:54.574     0:08:13.784     23 952 kbps     36 782 kbps     01:46:57.869    28 736 kbps     01:47:41.997    27 085 kbps     01:46:57.869    124 873 bytes   369 607 bytes   01:46:57.911
20              1:55:08.359     0:07:41.419     24 085 kbps     35 468 kbps     02:01:27.405    28 241 kbps     01:55:33.426    26 456 kbps     02:00:50.701    125 570 bytes   328 780 bytes   02:01:21.524
21              2:02:49.779     0:06:33.226     22 458 kbps     33 710 kbps     02:04:46.187    29 632 kbps     02:05:02.786    26 339 kbps     02:05:01.493    117 098 bytes   759 965 bytes   02:07:01.488
STREAM DIAGNOSTICS:
File            PID             Type            Codec           Language                Seconds                 Bitrate                 Bytes           Packets
----            ---             ----            -----           --------                --------------          --------------          -------------   -----
00002.M2TS      4113 (0x1011)   0x1B            AVC                                     3895,225                23 998                  11 684 594 944  63 558 267
00002.M2TS      4352 (0x1100)   0x80            LPCM            eng (English)           3895,225                1 542                   751 015 768     4 674 372
00002.M2TS      4353 (0x1101)   0x81            AC3             eng (English)           3895,225                640                     311 626 240     1 825 935
00002.M2TS      4354 (0x1102)   0x86            DTS-HD MA       eng (English)           3895,225                2 488                   1 211 342 708   7 187 159
00004.M2TS      4113 (0x1011)   0x1B            AVC                                     3867,614                23 848                  11 529 399 985  62 714 246
00004.M2TS      4352 (0x1100)   0x80            LPCM            eng (English)           3867,614                1 542                   745 692 560     4 641 240
00004.M2TS      4353 (0x1101)   0x81            AC3             eng (English)           3867,614                640                     309 416 960     1 812 990
00004.M2TS      4354 (0x1102)   0x86            DTS-HD MA       eng (English)           3867,614                2 671                   1 291 173 484   7 613 909

Код:
<---- END FORUMS PASTE ---->
QUICK SUMMARY:
Disc Title: EAGLE_ROCK_PETER_GABRIEL
Disc Size: 47 002 162 953 bytes
Protection: AACS
BD-Java: No
Playlist: 00004.MPLS
Size: 29 623 302 144 bytes
Length: 2:09:23
Total Bitrate: 30,53 Mbps
Video: MPEG-4 AVC Video / 23923 kbps / 1080p / 23,976 fps / 16:9 / High Profile 4.1
Audio: English / DTS-HD Master Audio / 5.1 / 48 kHz / 2579 kbps / 16-bit (DTS Core: 5.1 / 48 kHz / 1509 kbps / 16-bit)
Audio: English / Dolby Digital Audio / 5.1 / 48 kHz / 640 kbps
Audio: English / LPCM Audio / 2.0 / 48 kHz / 1536 kbps / 16-bit
Скриншоты
Внимание!
Если у Вас отсутствует 3D оборудования, то данный диск будет воспроизводиться как 2D.
Прежде, чем задать вопрос о том, как смотреть и т.д. и т.п. - прочитайте FAQ



Вернуться к началу
 Профиль Отправить личное сообщение  
 
   Похожие торренты   Автор   Торрент   Размер 
В этой теме нет новых непрочитанных сообщений. [AbbyWinters.com] Ellie B and Peter (Menstrual blood) [2017-9-27, Hairy armpits, Hardcore, Creampie, 1080p]

salma3

13 | 4

3.42 ГБ

В этой теме нет новых непрочитанных сообщений. [HardX.com] London Keyes (All Anal For London / 12.05.17.) [2017, Gonzo, Anal, 1080p]

salma3

14 | 5

1.69 ГБ

В этой теме нет новых непрочитанных сообщений. [Throated.com / MyXXXPass.com] London River (London VS Cock / 02.03.2018) [2018 г., Cumshot,Blonde,Blowjob,Deepthroat,Saliva,Gonzo,Ball Licking,Big Tits,Face Fuck,Mature,MILF,Oral,Spitting,Swallow, 1080p]

salma3

0 | 0

581.83 МБ

В этой теме нет новых непрочитанных сообщений. [WildOnCam.com / CherryPimps.com] Alexis Fawx (Excited To Fuck For You LIVE / 2017-05-04 / 15695) Excited To Fuck For You LIVE [Big Tits, Blonde, Facials, Feet, Hardcore, Lingerie, Live Show, MILF, Pile Driver, 1080p]

salma3

32 | 10

5.35 ГБ

В этой теме нет новых непрочитанных сообщений. [HardX.com] London Keyes (All Anal For London / 12.05.17.) [2017, Gonzo, Anal, 400p]

salma3

38 | 13

329.65 МБ

В этой теме нет новых непрочитанных сообщений. London Keyes / London Keyes Gets Deep Anal (2015) HD 720p

Dile-1

22 | 77

373.99 МБ

В этой теме нет новых непрочитанных сообщений. E1296 Layla London (2017) HD 1080p

salma3

0 | 0

1.6 ГБ


Начать новую тему Ответить на тему  [ 1 сообщение ] 




Для Мосгорсуда, Роскомнадзора и рекламодателей:: mosgorsud-torrent[собачка]yandex.ru
cron