Торрент файл
скачать торрент магнет ссылка Добавлен: 07 окт 2012, 21:22
Размер: 951.28 МБ
Сидеров: 2
Личеров: 2
Автор

СообщениеДобавлено: 07 окт 2012, 21:22 

Не в сети
Аватара пользователя
Дата регистрации:
28 ноя 2010, 22:22
Спасибо: 722 / 5
Сообщения: 2030
Севастополь Панорама и Диорама в 3D
Год выпуска: 2011
Страна: Украина
Жанр: Любительская сьемка
Продолжительность: 00:21:05
Перевод: Не требуется
Русские субтитры: нет
Описание: Севастопольские Панорама и Диорама. Частичка истории о войнах и о тех, кто защищал наше мирное будущее. Вечная память героям!
Фотографии собраны в видео файл для просмотра на телевизорах поддерживающих функцию 3D.
Бонусы: В раздаче содержится бонус файлик с фотографиями птичек, животных и рептилий. Питомник расположен за Панорамой, это небольшая экскурсия по нему.
Видео 100% можно смотреть на телевизоре Samsung UE-40 C7000 - проверено.
Качество: HDTV
Контейнер: AVI
Формат 3D: Half SideBySide / Горизонтальная анаморфная стереопара
Порядок ракурсов: левый ракурс первый
Видео кодек: xVid
Аудио кодек: MP3
Видео: XVID 4843Kbps 1920х1080 16:9 25.000 fps
Аудио: MP3 2 channels 128 Kbps 44.1 KHz
MediaInfo
General
Complete name : 3D_Sevastopol_Panorama_Diorama.avi
Format : AVI
Format/Info : Audio Video Interleave
File size : 750 MiB
Duration : 21mn 5s
Overall bit rate : 4 975 Kbps
Video
ID : 0
Format : MPEG-4 Visual
Format profile : Advanced [email protected]
Format settings, BVOP : 2
Format settings, QPel : No
Format settings, GMC : No warppoints
Format settings, Matrix : Default (H.263)
Muxing mode : Packed bitstream
Codec ID : XVID
Codec ID/Hint : XviD
Duration : 21mn 5s
Bit rate : 4 843 Kbps
Width : 1 920 pixels
Height : 1 080 pixels
Display aspect ratio : 16:9
Frame rate : 25.000 fps
Color space : YUV
Chroma subsampling : 4:2:0
Bit depth : 8 bits
Scan type : Progressive
Compression mode : Lossy
Bits/(Pixel*Frame) : 0.093
Stream size : 730 MiB (97%)
Writing library : XviD 64
Audio
ID : 1
Format : MPEG Audio
Format version : Version 1
Format profile : Layer 3
Mode : Joint stereo
Mode extension : MS Stereo
Codec ID : 55
Codec ID/Hint : MP3
Duration : 21mn 4s
Bit rate mode : Constant
Bit rate : 128 Kbps
Channel(s) : 2 channels
Sampling rate : 44.1 KHz
Compression mode : Lossy
Stream size : 19.3 MiB (3%)
Alignment : Aligned on interleaves
Interleave, duration : 1000 ms (25.00 video frames)
Скриншоты




MediaInfo бонусов
General
Complete name : 3D_Ptica_Sevast.avi
Format : AVI
Format/Info : Audio Video Interleave
File size : 201 MiB
Duration : 5mn 0s
Overall bit rate : 5 620 Kbps
Video
ID : 0
Format : MPEG-4 Visual
Format profile : Advanced [email protected]
Format settings, BVOP : 2
Format settings, QPel : No
Format settings, GMC : No warppoints
Format settings, Matrix : Default (H.263)
Muxing mode : Packed bitstream
Codec ID : XVID
Codec ID/Hint : XviD
Duration : 5mn 0s
Bit rate : 5 487 Kbps
Width : 1 920 pixels
Height : 1 080 pixels
Display aspect ratio : 16:9
Frame rate : 25.000 fps
Color space : YUV
Chroma subsampling : 4:2:0
Bit depth : 8 bits
Scan type : Progressive
Compression mode : Lossy
Bits/(Pixel*Frame) : 0.106
Stream size : 196 MiB (98%)
Writing library : XviD 64
Audio
ID : 1
Format : MPEG Audio
Format version : Version 1
Format profile : Layer 3
Mode : Joint stereo
Mode extension : MS Stereo
Codec ID : 55
Codec ID/Hint : MP3
Duration : 5mn 0s
Bit rate mode : Constant
Bit rate : 128 Kbps
Channel(s) : 2 channels
Sampling rate : 44.1 KHz
Compression mode : Lossy
Stream size : 4.57 MiB (2%)
Alignment : Aligned on interleaves
Interleave, duration : 1000 ms (25.00 video frames)
Скриншоты бонусов





Вернуться к началу
 Профиль Отправить личное сообщение  
 
   Похожие торренты   Автор   Торрент   Размер 
В этой теме нет новых непрочитанных сообщений. Битва за Черное море. Севастополь (Андрей Семак) [2011, документальный, TVRip]

salma3

0 | 3

303.35 МБ

В этой теме нет новых непрочитанных сообщений. [DorcelClub.com] Jessie Volt - Half Angel Half Succubus (25.11.2017) [2017 г., All Sex, Hardcore, 1080p]

salma3

30 | 10

506.33 МБ

В этой теме нет новых непрочитанных сообщений. Полу-Нельсон / Half Nelson [драма, 2006] DVDRip, Dvo+Sub

salma3

82 | 2

1.45 ГБ

В этой теме нет новых непрочитанных сообщений. Half-Life 2 Episode Two [ction (Shooter),3D,1st Person, 2007] [RePack]

Sykre

5 | 1

4.6 ГБ

В этой теме нет новых непрочитанных сообщений. [PureTaboo.com] Jill Kassidy, Kristen Scott - Half His Age - Part 3 (12.10.2017) [All sex]

salma3

6 | 2

629.08 МБ

В этой теме нет новых непрочитанных сообщений. Полусвет / Half Light [Триллер, драма, детектив, 2006] BDRemux 1080p, Mvo

salma3

0 | 1

24.39 ГБ

В этой теме нет новых непрочитанных сообщений. Полусвет / Half Light [ужасы, триллер, драма, 2006] BDRip 720p, Mvo

salma3

97 | 7

4.28 ГБ


Начать новую тему Ответить на тему  [ 1 сообщение ] 




Для Мосгорсуда, Роскомнадзора и рекламодателей:: mosgorsud-torrent[собачка]yandex.ru
cron