Торрент файл
скачать торрент магнет ссылка Добавлен: 07 окт 2012, 21:22
Размер: 6.46 ГБ
Сидеров: 3
Личеров: 3
Автор

СообщениеДобавлено: 07 окт 2012, 21:22 

Не в сети
Аватара пользователя
Дата регистрации:
28 ноя 2010, 22:22
Спасибо: 722 / 5
Сообщения: 2030
Благотворительный концерт Фонда Принца Уэльского 2010 / Prince's Trust Rock Gala 2010 (Royal Albert Hall, London, 17th November 2010)
Телеканал:
Год выпуска: 2010
Страна: Англия
Жанр: Rock
Продолжительность: 01:25:01
Перевод: Профессиональный (двухголосый закадровый)
Русские субтитры: нет
Описание: Благотворительный концерт Фонда Принца Уэльского с участием: Eric Clapton, Jamie Cullum, Jools Holland, Tom Jones, Mark King, Brian May, Paolo Mutini, Queen, Status Quo, Midge Ure и других звезд.
Качество: HDTV
Контейнер: MKV
Формат 3D: Half SideBySide / Горизонтальная анаморфная стереопара
Порядок ракурсов: левый ракурс первый
Видео кодек: AVC
Аудио кодек: AC3
Видео: AVC / 1920:1080 /16:9 / 10.2 Mbps / 25.000 fp
Аудио: AC3 / 2 channels / 448 Kbps / 48.0 KHz
MediaInfo
D:\Upload\rock_gala_2010_3d.mkv
General
Unique ID : 6402444954087158397026698838392396747 (0x4D110E85A8EDB5940CC4942FE1F5BCB)
Complete name : D:\Upload\rock_gala_2010_3d.mkv
Format : Matroska
File size : 6.46 GiB
Duration : 1h 25mn
Overall bit rate : 10.9 Mbps
Encoded date : UTC 2012-08-14 14:37:17
Writing library : Haali DirectShow Matroska Muxer 1.11.96.14
Video #1
ID : 1
Format : AVC
Format/Info : Advanced Video Codec
Format profile : [email protected]
Format settings, CABAC : Yes
Format settings, ReFrames : 3 frames
Codec ID : V_MPEG4/ISO/AVC
Duration : 1h 25mn
Bit rate : 10.2 Mbps
Width : 1 920 pixels
Height : 1 080 pixels
Display aspect ratio : 16:9
Frame rate : 25.000 fps
Standard : Component
Color space : YUV
Chroma subsampling : 4:2:0
Bit depth : 8 bits
Scan type : Interlaced
Scan order : Top Field First
Bits/(Pixel*Frame) : 0.197
Stream size : 6.06 GiB (94%)
Title : PID 322 Video
Color primaries : BT.709-5, BT.1361, IEC 61966-2-4, SMPTE RP177
Transfer characteristics : BT.709-5, BT.1361
Matrix coefficients : BT.709-5, BT.1361, IEC 61966-2-4 709, SMPTE RP177
Audio #2
ID : 2
Format : AC-3
Format/Info : Audio Coding 3
Mode extension : CM (complete main)
Codec ID : A_AC3
Duration : 1h 25mn
Bit rate mode : Constant
Bit rate : 448 Kbps
Channel(s) : 2 channels
Channel positions : Front: L R
Sampling rate : 48.0 KHz
Bit depth : 16 bits
Compression mode : Lossy
Delay relative to video : -14ms
Stream size : 272 MiB (4%)
Title : AC3
Language : Russian
Скриншоты







Вернуться к началу
 Профиль Отправить личное сообщение  
 
   Похожие торренты   Автор   Торрент   Размер 
В этой теме нет новых непрочитанных сообщений. Брайтонский леденец / Brighton Rock [Триллер, драма, криминал, экранизация, 2010] BDRip 1080p, Mvo+Sub

salma3

66 | 48

9.99 ГБ

В этой теме нет новых непрочитанных сообщений. Концерт Ирины Аллегровой в Олимпийском (Россия) [Концерт, 2015] HDTV 1080i

Dracon

335 | 52

6.13 ГБ

В этой теме нет новых непрочитанных сообщений. Рысь (2010) HDTV 1080i от MediaClub

marya111

48 | 9

6.06 ГБ

В этой теме нет новых непрочитанных сообщений. [Private.com] Susy Gala - Perfect Ass Susy Gala Has Her Pussy Filled Up [2016 г., Big Ass, Big Tits, Blowjob, Creampie, Hardcore, 1080p]

killerslava

5 | 2

1 ГБ

В этой теме нет новых непрочитанных сообщений. [LivingWithaPornstar.com / CumLouder.com] Susy Gala - Susy Gala's comeback (08.05.2018) [Big Ass, Squirting, Big Dick, Fishnet, Spanish Porn, Intense Sex, Passionate Sex, Big Tits]

salma3

0 | 0

598.3 МБ

В этой теме нет новых непрочитанных сообщений. Реальные кабаны [01-16 из 16] (2010) HDTV 1080i от MediaClub

salma3

23 | 42

50.98 ГБ

В этой теме нет новых непрочитанных сообщений. Гарри Поттер и Принц-полукровка / Harry Potter and the Half-Blood Prince [Фэнтези, мелодрама, приключения, 2009] BDRemux 2160p, Dub [4K]

salma3

6 | 20

63.93 ГБ


Начать новую тему Ответить на тему  [ 1 сообщение ] 




Для Мосгорсуда, Роскомнадзора и рекламодателей:: mosgorsud-torrent[собачка]yandex.ru
cron