Торрент файл
скачать торрент магнет ссылка Добавлен: 07 окт 2012, 21:22
Размер: 9.78 ГБ
Сидеров: 2
Личеров: 2
Автор

СообщениеДобавлено: 07 окт 2012, 21:22 

Не в сети
Аватара пользователя
Дата регистрации:
28 ноя 2010, 22:22
Спасибо: 722 / 5
Сообщения: 2030
Hannah Montana & Miley Cyrus: Best of Both Worlds Concert Tour 3D
Год выпуска: 2008
Страна: USA
Жанр: Pop-Rock, Teen-Pop, 3D
Продолжительность: 1:11:48
Перевод: Дублированный (кроме песен)
Описание: 3D-запись концертного турне 15-летней американской поп-певицы Майли Сайрус (Ханна Монтана) "Hannah Montana & Miley Cyrus: Best of Both Worlds Concert", созданная студией Disney, заняла первое место в американском прокате, заработав за первый уикенд 29 млн долларов. На фильм, в котором представлена как сама 15-летняя Сайрус, так и ее героиня из популярного детского сериала канала Disney Ханна Монтана, пришли юные поклонники творчества певицы, которые не смогли посетить ее концерты в рамках турне 2006-2007 года Best of Both Worlds Concert.
Технология 3-D дала зрителям возможность почувствовать себя участниками концерта, что безусловно подогрело интерес фанатов Сайрус. Успех фильма удивителен еще и тем, что картина вышла в ограниченном прокате (683 кинотетра).
Трэклист:
Opening credits
1. "We Got the Party"
Hannah Montana
1. "Rock Star"
2. "Life's What You Make It"
3. "Just Like You"
4. "Nobody's Perfect"
5. "I Got Nerve"
6. "We Got the Party" (feat. The Jonas Brothers)
Jonas Brothers
1. "When You Look Me in the Eyes"
2. "Year 3000"
Miley Cyrus
1. "Start All Over"
2. "See You Again"
3. "Let's Dance
4. " Miss You
5. "G.N.O. (Girl's Night Out)"
6. "The Best of Both Worlds" (feat. Hannah Montana)
End credits
1. "If We Were a Movie"
Качество: HDTV
Формат: TS
Формат 3D: Half SideBySide / Горизонтальная анаморфная стереопара
Видео кодек: h.264
Аудио кодек: AC3, DTS
Видео: MPEG4 Video (H264) 1920x1080i 25.00fps 16.6 Mbps
Аудио #1: Russian: Dolby AC3 48000Hz 2ch 448 Kbps
Аудио #2: English: DTS 48000Hz 6ch 1510 Kbps
Доп. информация:Для просмотра понадобится 3D телевизор или стереоплеер, через него можно смотреть с любыми видами очков и стереомониторов
Также возможен просмотр 2D версии на обычном плеере отрезав второй ракурс ffd фильтром

тематические ссылки: Обсуждение 3Д фильмов Обсуждение "на чем смотреть 3Д"
Скриншоты
MediaInfo
Format : MPEG-TS
File size : 9.78 GiB
Duration : 1h 11mn
Overall bit rate : 19.5 Mbps
Maximum Overall bit rate : 35.5 Mbps
Video
ID : 4113 (0x1011)
Menu ID : 1 (0x1)
Format : AVC
Format/Info : Advanced Video Codec
Format profile : [email protected]
Format settings, CABAC : Yes
Format settings, ReFrames : 3 frames
Format settings, GOP : M=1, N=18
Codec ID : 27
Duration : 1h 11mn
Bit rate mode : Variable
Bit rate : 16.6 Mbps
Maximum bit rate : 40.0 Mbps
Width : 1 920 pixels
Height : 1 080 pixels
Display aspect ratio : 16:9
Frame rate : 25.000 fps
Standard : Component
Color space : YUV
Chroma subsampling : 4:2:0
Bit depth : 8 bits
Scan type : Interlaced
Scan order : Top Field First
Bits/(Pixel*Frame) : 0.319
Stream size : 8.30 GiB (85%)
Color primaries : BT.709-5, BT.1361, IEC 61966-2-4, SMPTE RP177
Transfer characteristics : BT.709-5, BT.1361
Matrix coefficients : BT.709-5, BT.1361, IEC 61966-2-4 709, SMPTE RP177
Audio #1
ID : 4352 (0x1100)
Menu ID : 1 (0x1)
Format : AC-3
Format/Info : Audio Coding 3
Mode extension : CM (complete main)
Codec ID : 129
Duration : 1h 11mn
Bit rate mode : Constant
Bit rate : 448 Kbps
Channel(s) : 2 channels
Channel positions : Front: L R
Sampling rate : 48.0 KHz
Bit depth : 16 bits
Stream size : 230 MiB (2%)
Language : Russian
Audio #2
ID : 4353 (0x1101)
Menu ID : 1 (0x1)
Format : DTS
Format/Info : Digital Theater Systems
Codec ID : 130
Bit rate mode : Constant
Bit rate : 1 510 Kbps
Channel(s) : 6 channels
Channel positions : Front: L C R, Side: L R, LFE
Sampling rate : 48.0 KHz
Bit depth : 24 bits
Stream size : 1.04 ?iB
Language : English



Вернуться к началу
 Профиль Отправить личное сообщение  
 
   Похожие торренты   Автор   Торрент   Размер 
В этой теме нет новых непрочитанных сообщений. [BangingBeauties.com / PervCity.com] Hannah Hays (Innocent Teen Hannah Hays Is A Sex Dream Come To Life / 08.02.18) [2018 г., Hardcore, Blonde, Blowjob, Cumshots, Small Tits, Teen Girls, Shaved Pussy, 480p]

salma3

27 | 9

577.56 МБ

В этой теме нет новых непрочитанных сообщений. [BangingBeauties.com / PervCity.com] Hannah Hays - Innocent Teen Hannah Hays Is A Sex Dream Come To Life (08.02.2018) [2018 г., Hardcore, Blonde, Blowjob, Cumshots, Small Tits, Teen Girls, Shaved Pussy, 480p]

salma3

32 | 10

639.63 МБ

В этой теме нет новых непрочитанных сообщений. [LethalHardcore.com] Hannah Hays (Fear Of A Black Penis 5 - Scene 2 / Georgia Peach Hannah Hays Fulfills Her BBC Fantasy / 27.06.18) [2018 г., Blonde, Blowjob, IR, Teen, Hardcore, Big Lips, Doggystyle, Cowgirl, All Sex, 1080p]

salma3

0 | 0

1.07 ГБ

В этой теме нет новых непрочитанных сообщений. [Bang! Real Teens / Bang! Originals! / Bang.com] Hannah Hays (Hannah Hays Gives Road Head In The Car Wash Before Hotel Sex / 2018-01-07) [2018 г., One On One, Toys, 18+ Teen, Facial, Cumshot, Amateur, Blonde]

salma3

17 | 5

963.65 МБ

В этой теме нет новых непрочитанных сообщений. [Nubiles.net] Hannah Hays (Tiny Teen / 05.02.18) [2018 г., Solo, Masturbation, Shaved Pussy, Blonde, Teen, Fat Lips, Small Tits, Toys, Puffy Nipples, Long Hair, 1080p]

salma3

17 | 6

1.38 ГБ

В этой теме нет новых непрочитанных сообщений. [WildOnCam.com / CherryPimps.com] Hannah Hays (Southern Charmer Hannah Hays LIVE / 18.04.18) [2018 г., Blonde, Blowjob, Cow Girl, Doggy Style, Facials, Hardcore, Live Show Archives, Petite, Real Tits, Reverse Cow Girl, Small Tits, Teen, 720

salma3

0 | 0

1.01 ГБ

В этой теме нет новых непрочитанных сообщений. [WildOnCam.com / CherryPimps.com] Hannah Hays (Southern Charmer Hannah Hays LIVE / 18.04.18) [2018 г., Blonde, Blowjob, Cow Girl, Doggy Style, Facials, Hardcore, Live Show Archives, Petite, Real Tits, Reverse Cow Girl, Small Tits, Teen, 108

salma3

0 | 0

2.59 ГБ


Начать новую тему Ответить на тему  [ 1 сообщение ] 




Для Мосгорсуда, Роскомнадзора и рекламодателей:: mosgorsud-torrent[собачка]yandex.ru
cron