Торрент файл
скачать торрент магнет ссылка Добавлен: 27 дек 2017, 12:33
Размер: 2.1 ГБ
Сидеров: 19
Личеров: 7
Автор

СообщениеДобавлено: 27 дек 2017, 12:33 

Не в сети
Супермодератор
Аватара пользователя
Дата регистрации:
15 фев 2012, 16:44
Возраст: 28
Спасибо: 7290 / 2147
Сообщения: 70756
Жанр: Приключения, Триллер, Ужасы
Год выпуска: 2009
Страна: Великобритания
Возраст: 18+

Режиссер: Джон Харрис

В ролях: Шона МакДональд, Натали Джексон Мендоса, Майкл Дж. Рейнольдс, Джессика Уильямс, Дуглас Ходж, Джошуа Даллас, Анна Скеллерн, Гэвэн О’Херлихи, Кристен Каммингс, Даг Баллард

Описание: Захватывающая экспедиция вглубь горных пещер оборачивается для компании подруг ужасной трагедией. Выжить удается лишь одной девушке. Раненая и обезумевшая от страха, она обращается в местную полицию.

Продолжительность: 01:33:53
Перевод: Дублированный [Лицензия]
Оригинальная дорожка: есть

Автор рипа:

Качество видео: BDRip 720p Исходник: Blu-Ray Remux (1080p) Формат: mp4
Видео кодек: MPEG-4 AVC Аудио кодек: AAC
Видео: 1280x544 (2.35:1) at 23.976 fps, AVC at 2 869 kbps avg, 0.172 bit/pixel
Аудио №1 Rus: 48.0 KHz, AAC, 2 ch, 160.0 Kbps
Аудио №2 Eng: 48.0 KHz, AAC, 2 ch, 160.0 Kbps
Субтитры: русские (полные), английские (полные)
Навигация по главам: есть
Размер: 2.10 GiB

avs [info]: 1280x544p 1:1 @ 24000/1001 fps (cfr)
x264 [info]: using SAR=1/1
x264 [info]: using cpu capabilities: MMX2 SSE2Fast SSSE3 Cache64
x264 [info]: profile High, level 4.1
x264 [info]: frame I:1059 Avg QP:15.91 size: 92699
x264 [info]: frame P:28465 Avg QP:18.85 size: 26987
x264 [info]: frame B:105555 Avg QP:20.33 size: 10932
x264 [info]: consecutive B-frames: 1.9% 2.0% 7.5% 16.5% 18.0% 46.2% 5.0% 1.4% 1.5%
x264 [info]: mb I I16..4: 4.9% 83.4% 11.7%
x264 [info]: mb P I16..4: 1.1% 10.4% 1.1% P16..4: 45.9% 17.0% 16.2% 0.3% 0.1% skip: 7.9%
x264 [info]: mb B I16..4: 0.1% 1.1% 0.1% B16..8: 45.4% 9.9% 1.9% direct: 7.3% skip:34.2% L0:47.7% L1:46.5% BI: 5.8%
x264 [info]: 8x8 transform intra:83.4% inter:70.1%
x264 [info]: coded y,uvDC,uvAC intra: 82.6% 67.9% 38.5% inter: 29.8% 19.0% 1.8%
x264 [info]: i16 v,h,dc,p: 33% 12% 9% 46%
x264 [info]: i8 v,h,dc,ddl,ddr,vr,hd,vl,hu: 14% 10% 25% 6% 10% 10% 8% 9% 8%
x264 [info]: i4 v,h,dc,ddl,ddr,vr,hd,vl,hu: 18% 13% 14% 8% 12% 11% 9% 8% 7%
x264 [info]: i8c dc,h,v,p: 59% 16% 17% 8%
x264 [info]: Weighted P-Frames: Y:9.9% UV:5.8%
x264 [info]: ref P L0: 42.3% 9.4% 16.0% 7.7% 5.8% 4.7% 3.9% 2.5% 2.1% 1.9% 1.8% 1.8% 0.2% 0.0%
x264 [info]: ref B L0: 65.9% 12.6% 7.3% 3.8% 2.9% 2.3% 1.9% 1.3% 1.0% 0.7% 0.3%
x264 [info]: ref B L1: 92.1% 7.9%
x264 [info]: kb/s:2868.78
encoded 135079 frames, 1.21 fps, 2868.78 kb/s

General
Complete name : ...Spusk_2_2009_KinoGadget.mp4
Format : MPEG-4
Format profile : Base Media
Codec ID : isom (isom)
File size : 2.10 GiB
Duration : 1 h 33 min
Overall bit rate mode : Variable
Overall bit rate : 3 200 kb/s
Movie name : Спуск 2 | KinoGadget
Performer : Джон Харрис
Director : Джон Харрис
Actor : Шона Макдональд / Дуглас Ходж / Джошуа Даллас / Анна Скеллерн / Кристен Каммингс / Даг Баллард / Джош Коул / Саския Малдер / Натали Джексон Мендоса / Алекс Рид
Screenplay by : Джеймс МакКарти / Дж. Блэйксон / Джеймс Уоткинс
Producer : Кристиан Колсон / Ивана МакКиннон / Франсуа Ивернель
Genre : Adventure, Horror, Thriller
ContentType : Short Film
Recorded date : 2009
Encoded date : UTC 2017-12-27 06:11:36
Tagged date : UTC 2017-12-27 06:21:56
Cover : Yes
ContentRating : mpaa|R|400|
LongDeion : Захватывающая экспедиция вглубь горных пещер оборачивается для компании подруг ужасной трагедией. Выжить удается лишь одной девушке. Раненая и обезумевшая от страха, она обращается в местную полицию.
HDVideo : Yes

Video
ID : 1
Format : AVC
Format/Info : Advanced Video Codec
Format profile : [email protected]
Format settings : CABAC / 12 Ref Frames
Format settings, CABAC : Yes
Format settings, ReFrames : 12 frames
Codec ID : avc1
Codec ID/Info : Advanced Video Coding
Duration : 1 h 33 min
Bit rate : 2 869 kb/s
Maximum bit rate : 17.2 Mb/s
Width : 1 280 pixels
Height : 544 pixels
Display aspect ratio : 2.35:1
Frame rate mode : Constant
Frame rate : 23.976 (24000/1001) FPS
Color space : YUV
Chroma subsampling : 4:2:0
Bit depth : 8 bits
Scan type : Progressive
Bits/(Pixel*Frame) : 0.172
Stream size : 1.88 GiB (90%)
Writing library : x264 core 152 r2851 ba24899
Encoding settings : cabac=1 / ref=12 / deblock=1:-2:-1 / analyse=0x3:0x133 / me=umh / subme=7 / psy=1 / psy_rd=1.00:0.00 / mixed_ref=1 / me_range=32 / chroma_me=1 / trellis=2 / 8x8dct=1 / cqm=0 / deadzone=21,11 / fast_pskip=0 / chroma_qp_offset=-2 / threads=3 / lookahead_threads=1 / sliced_threads=0 / nr=0 / decimate=1 / interlaced=0 / bluray_compat=0 / constrained_intra=0 / bframes=8 / b_pyramid=2 / b_adapt=2 / b_bias=0 / direct=1 / weightb=1 / open_gop=0 / weightp=2 / keyint=250 / keyint_min=25 / scenecut=40 / intra_refresh=0 / rc_lookahead=60 / rc=crf / mbtree=1 / crf=19.0 / qcomp=0.60 / qpmin=0 / qpmax=69 / qpstep=4 / vbv_maxrate=62500 / vbv_bufsize=78125 / crf_max=0.0 / nal_hrd=none / filler=0 / ip_ratio=1.40 / aq=1:1.00
Encoded date : UTC 2017-12-26 18:24:48
Tagged date : UTC 2017-12-27 06:12:26

Audio #1
ID : 2
Format : AAC
Format/Info : Advanced Audio Codec
Format profile : LC
Codec ID : mp4a-40-2
Duration : 1 h 33 min
Bit rate mode : Variable
Bit rate : 160 kb/s
Maximum bit rate : 168 kb/s
Channel(s) : 2 channels
Channel positions : Front: L R
Sampling rate : 48.0 kHz
Frame rate : 46.875 FPS (1024 SPF)
Compression mode : Lossy
Stream size : 107 MiB (5%)
Language : Russian
Encoded date : UTC 2017-12-26 19:24:13
Tagged date : UTC 2017-12-27 06:12:26

Audio #2
ID : 3
Format : AAC
Format/Info : Advanced Audio Codec
Format profile : LC
Codec ID : mp4a-40-2
Duration : 1 h 33 min
Bit rate mode : Variable
Bit rate : 160 kb/s
Maximum bit rate : 168 kb/s
Channel(s) : 2 channels
Channel positions : Front: L R
Sampling rate : 48.0 kHz
Frame rate : 46.875 FPS (1024 SPF)
Compression mode : Lossy
Stream size : 107 MiB (5%)
Language : English
Encoded date : UTC 2017-12-26 21:10:58
Tagged date : UTC 2017-12-27 06:12:26

Text #1
ID : 4
Format : Timed Text
Codec ID : tx3g
Duration : 1 h 28 min
Bit rate mode : Variable
Bit rate : 35 b/s
Stream size : 22.6 KiB (0%)
Language : Russian
Forced : No
Encoded date : UTC 2017-12-27 06:12:26
Tagged date : UTC 2017-12-27 06:12:26

Text #2
ID : 5
Format : Timed Text
Codec ID : tx3g
Duration : 1 h 28 min
Bit rate mode : Variable
Bit rate : 30 b/s
Stream size : 19.3 KiB (0%)
Language : English
Forced : No
Encoded date : UTC 2017-12-27 06:12:26
Tagged date : UTC 2017-12-27 06:12:26

Menu
00:00:00.000 : Opening Credits
00:03:49.062 : Survivor
00:10:42.433 : Chapel Mine
00:16:23.190 : New Entrance
00:20:09.916 : Down
00:28:01.888 : Flashback
00:32:02.337 : Trapped
00:38:37.481 : Camera Reveals
00:43:52.295 : Escape
00:49:58.704 : Radioing For Help
00:54:05.533 : Last Message
00:59:02.956 : Saved By Juno
01:07:31.630 : Finding A Way Out
01:12:19.167 : They Are Death
01:18:19.611 : Confrontation
01:22:58.765 : Working Together



Данный рип предназначен для просмотра на мобильных гаджетах с поддержкой формата mp4


_________________
Проголосуй за трекер Открытый торрент трекер - RUS-MEDIA.ORG

Проголосуй Открытый торрент трекер - RUS-MEDIA.ORG


Вернуться к началу
 Профиль Отправить личное сообщение  
 
   Похожие торренты   Автор   Торрент   Размер 
В этой теме нет новых непрочитанных сообщений. Спуск 2 / The Descent: Part 2 [Ужасы, триллер, приключения, 2009] BDRemux 1080p, Dub

salma3

7 | 8

20.57 ГБ

В этой теме нет новых непрочитанных сообщений. Спуск / The Descent [ужасы, триллер, 2005] BDRip 720p, Dub+Mvo+Avo+Sub

salma3

70 | 13

4.21 ГБ

В этой теме нет новых непрочитанных сообщений. Спуск / The Descent [ужасы, приключения, 2005] BDRip 1080p, Dub+Mvo+Avo+Sub

salma3

67 | 9

10.54 ГБ

В этой теме нет новых непрочитанных сообщений. Спуск / The Descent [Ужасы, триллер, приключения, 2005] BDRemux 1080p, Dub

salma3

10 | 2

21.62 ГБ

В этой теме нет новых непрочитанных сообщений. Спуск / The Descent [ужасы, драма, 2005] BDRip 1080p, Dub+Sub

salma3

58 | 51

4.37 ГБ

В этой теме нет новых непрочитанных сообщений. Спуск / The Descent [ужасы, триллер, 2005] HDRip-AVC, Dub+Dvo+Sub

salma3

100 | 24

1.45 ГБ

В этой теме нет новых непрочитанных сообщений. Морган / Morgan [ужасы, фантастика, триллер, 2016] BDRip 720p, Dub [iPad] [Лицензия]

salma3

41 | 20

1.56 ГБ


Начать новую тему Ответить на тему  [ 1 сообщение ] 




Для Мосгорсуда, Роскомнадзора и рекламодателей:: mosgorsud-torrent[собачка]yandex.ru
cron