Торрент файл
скачать торрент магнет ссылка Добавлен: 20 авг 2017, 15:42
Размер: 1.52 ГБ
Сидеров: 20
Личеров: 5
Автор

СообщениеДобавлено: 20 авг 2017, 15:42 

Не в сети
Супермодератор
Аватара пользователя
Дата регистрации:
15 фев 2012, 16:44
Возраст: 28
Спасибо: 7204 / 2147
Сообщения: 65100
Год выпуска: 2016
Оригинальное название: Allied
Страна: Великобритания, США
Жанр: боевик, триллер, драма
Возраст: 18+

Режиссер: Роберт Земекис

В ролях: Брэд Питт, Марион Котийяр, Лиззи Каплан, Аугуст Диль, Шарлотта Хоуп, Рэффи Кэссиди, Мэттью Гуд, Дэниэл Беттс, Саймон МакБерни, Джаред Харрис

Описание: 1942 год. Во время опасной миссии в Северной Африке разведчик Макс встречает участницу сопротивления Марианну. Их чувствам суждено подвергнуться тысяче испытаний, главным из которых станет испытание правдой.

Продолжительность: 02:04:35
Перевод: Дублированный [Лицензия]
Оригинальная дорожка: есть

Автор рипа:

Качество видео: BDRip 720p Исходник: Blu-Ray Remux (1080p) Формат: mp4
Видео кодек: MPEG-4 AVC Аудио кодек: AAC
Видео: 1280x536 (2.40:1) at 23.976 fps, AVC at 1 478 kbps avg, 0.090 bit/pixel
Аудио №1 Rus: 48.0 KHz, AAC, 2 ch, 128.0 Kbps
Аудио №2 Eng: 48.0 KHz, AAC, 2 ch, 128.0 Kbps
Субтитры: русские (форсированные, полные), английские (полные)
Навигация по главам: есть
Размер: 1.52 GiB

avs [info]: 1280x536p 1:1 @ 24000/1001 fps (cfr)
x264 [info]: using SAR=1/1
x264 [info]: using cpu capabilities: MMX2 SSE2Fast SSSE3 Cache64
x264 [info]: profile High, level 4.1
x264 [info]: frame I:1099 Avg QP:13.60 size: 86648
x264 [info]: frame P:34357 Avg QP:16.96 size: 20490
x264 [info]: frame B:143773 Avg QP:20.20 size: 4049
x264 [info]: consecutive B-frames: 1.1% 1.6% 5.6% 13.7% 15.9% 39.8% 9.7% 3.6% 3.8% 2.0% 3.1%
x264 [info]: mb I I16..4: 11.1% 62.8% 26.0%
x264 [info]: mb P I16..4: 1.2% 4.7% 0.8% P16..4: 46.0% 22.4% 13.9% 0.0% 0.0% skip:11.0%
x264 [info]: mb B I16..4: 0.1% 0.2% 0.0% B16..8: 39.9% 4.8% 1.0% direct: 2.2% skip:51.8% L0:44.2% L1:49.0% BI: 6.8%
x264 [info]: 8x8 transform intra:67.8% inter:62.2%
x264 [info]: coded y,uvDC,uvAC intra: 71.7% 73.3% 44.9% inter: 11.4% 11.4% 1.2%
x264 [info]: i16 v,h,dc,p: 27% 30% 4% 39%
x264 [info]: i8 v,h,dc,ddl,ddr,vr,hd,vl,hu: 19% 16% 16% 6% 9% 9% 9% 8% 8%
x264 [info]: i4 v,h,dc,ddl,ddr,vr,hd,vl,hu: 25% 20% 13% 6% 9% 8% 8% 6% 5%
x264 [info]: i8c dc,h,v,p: 51% 21% 20% 8%
x264 [info]: Weighted P-Frames: Y:2.5% UV:1.1%
x264 [info]: ref P L0: 52.7% 9.5% 15.7% 6.7% 5.0% 4.2% 3.7% 2.4% 0.1% 0.0%
x264 [info]: ref B L0: 78.7% 9.8% 5.5% 2.5% 1.9% 1.2% 0.5%
x264 [info]: ref B L1: 94.0% 6.0%
x264 [info]: kb/s:1478.35
encoded 179229 frames, 2.82 fps, 1478.35 kb/s
General
Complete name : ...Soyuzniki_2016_KinoGadget.mp4
Format : MPEG-4
Format profile : Base Media
Codec ID : isom (isom)
File size : 1.52 GiB
Duration : 2 h 4 min
Overall bit rate mode : Variable
Overall bit rate : 1 746 kb/s
Movie name : Союзники | KinoGadget
Performer : Роберт Земекис
Director : Роберт Земекис
Actor : Брэд Питт / Марион Котийяр / Лиззи Каплан / Аугуст Диль / Шарлотта Хоуп / Рэффи Кэссиди / Мэттью Гуд / Дэниэл Беттс / Саймон МакБерни / Джаред Харрис
Screenplay by : Стивен Найт
Producer : Грэм Кинг / Стивен Найт / Жаклин Ливайн
Genre : Action, Drama, Romance
ContentType : Short Film
Recorded date : 2016
Encoded date : UTC 2017-08-20 10:37:41
Tagged date : UTC 2017-08-20 11:20:37
Cover : Yes
ContentRating : mpaa|R|400|
LongDeion : 1942 год. Во время опасной миссии в Северной Африке разведчик Макс встречает участницу сопротивления Марианну. Их чувствам суждено подвергнуться тысяче испытаний, главным из которых станет испытание правдой.
HDVideo : Yes

Video
ID : 1
Format : AVC
Format/Info : Advanced Video Codec
Format profile : [email protected]
Format settings, CABAC : Yes
Format settings, ReFrames : 8 frames
Codec ID : avc1
Codec ID/Info : Advanced Video Coding
Duration : 2 h 4 min
Bit rate : 1 478 kb/s
Maximum bit rate : 9 109 kb/s
Width : 1 280 pixels
Height : 536 pixels
Display aspect ratio : 2.40:1
Frame rate mode : Constant
Frame rate : 23.976 (24000/1001) FPS
Color space : YUV
Chroma subsampling : 4:2:0
Bit depth : 8 bits
Scan type : Progressive
Bits/(Pixel*Frame) : 0.090
Stream size : 1.29 GiB (85%)
Writing library : x264 core 148 r2744 b97ae06
Encoding settings : cabac=1 / ref=8 / deblock=1:-2:-1 / analyse=0x3:0x113 / me=umh / subme=7 / psy=1 / psy_rd=1.00:0.00 / mixed_ref=1 / me_range=32 / chroma_me=1 / trellis=2 / 8x8dct=1 / cqm=0 / deadzone=21,11 / fast_pskip=0 / chroma_qp_offset=-2 / threads=3 / lookahead_threads=1 / sliced_threads=0 / nr=0 / decimate=1 / interlaced=0 / bluray_compat=0 / constrained_intra=0 / bframes=10 / b_pyramid=2 / b_adapt=2 / b_bias=0 / direct=1 / weightb=1 / open_gop=0 / weightp=2 / keyint=250 / keyint_min=25 / scenecut=40 / intra_refresh=0 / rc_lookahead=60 / rc=crf / mbtree=1 / crf=18.0 / qcomp=0.60 / qpmin=0 / qpmax=69 / qpstep=4 / vbv_maxrate=62500 / vbv_bufsize=78125 / crf_max=0.0 / nal_hrd=none / filler=0 / ip_ratio=1.40 / aq=1:1.00
Encoded date : UTC 2017-08-20 09:29:59
Tagged date : UTC 2017-08-20 10:38:12

Audio #1
ID : 2
Format : AAC
Format/Info : Advanced Audio Codec
Format profile : LC
Codec ID : 40
Duration : 2 h 4 min
Bit rate mode : Variable
Bit rate : 128 kb/s
Maximum bit rate : 135 kb/s
Channel(s) : 2 channels
Channel positions : Front: L R
Sampling rate : 48.0 kHz
Frame rate : 46.875 FPS (1024 spf)
Compression mode : Lossy
Stream size : 114 MiB (7%)
Language : Russian
Encoded date : UTC 2017-08-20 09:33:32
Tagged date : UTC 2017-08-20 10:38:12

Audio #2
ID : 3
Format : AAC
Format/Info : Advanced Audio Codec
Format profile : LC
Codec ID : 40
Duration : 2 h 4 min
Bit rate mode : Variable
Bit rate : 128 kb/s
Maximum bit rate : 135 kb/s
Channel(s) : 2 channels
Channel positions : Front: L R
Sampling rate : 48.0 kHz
Frame rate : 46.875 FPS (1024 spf)
Compression mode : Lossy
Stream size : 114 MiB (7%)
Language : English
Encoded date : UTC 2017-08-20 09:43:24
Tagged date : UTC 2017-08-20 10:38:12

Text #1
ID : 4
Format : Timed Text
Codec ID : tx3g
Duration : 1 h 39 min
Bit rate mode : Variable
Bit rate : 10 b/s
Stream size : 6.98 KiB (0%)
Language : Russian
Forced : No
Encoded date : UTC 2017-08-20 10:38:11
Tagged date : UTC 2017-08-20 10:38:12

Text #2
ID : 5
Format : Timed Text
Codec ID : tx3g
Duration : 1 h 56 min
Bit rate mode : Variable
Bit rate : 61 b/s
Stream size : 52.0 KiB (0%)
Language : Russian
Forced : No
Encoded date : UTC 2017-08-20 10:38:12
Tagged date : UTC 2017-08-20 10:38:12

Text #3
ID : 6
Format : Timed Text
Codec ID : tx3g
Duration : 1 h 56 min
Bit rate mode : Variable
Bit rate : 36 b/s
Stream size : 31.0 KiB (0%)
Language : English
Forced : No
Encoded date : UTC 2017-08-20 10:38:12
Tagged date : UTC 2017-08-20 10:38:12

Menu
00:00:00.000 : 00:00:00.000
00:05:38.088 : 00:05:38.088
00:16:39.749 : 00:16:39.749
00:24:31.428 : 00:24:31.428
00:33:52.280 : 00:33:52.280
00:43:07.543 : 00:43:07.543
00:49:14.118 : 00:49:14.118
01:01:39.321 : 01:01:39.321
01:09:36.339 : 01:09:36.339
01:16:44.016 : 01:16:44.016
01:26:14.961 : 01:26:14.961
01:31:53.466 : 01:31:53.466
01:40:12.173 : 01:40:12.173
01:47:25.105 : 01:47:25.105
01:56:35.614 : 01:56:35.614



_________________
Проголосуй за трекер Открытый торрент трекер - RUS-MEDIA.ORG

Проголосуй Открытый торрент трекер - RUS-MEDIA.ORG


Вернуться к началу
 Профиль Отправить личное сообщение  
 
   Похожие торренты   Автор   Торрент   Размер 
В этой теме нет новых непрочитанных сообщений. Союзники / Allied [боевик, триллер, драма, мелодрама, военный, 2016] BDRip 720p, Dub+Sub [Лицензия]

salma3

455 | 36

9.13 ГБ

В этой теме нет новых непрочитанных сообщений. Союзники / Allied [боевик, триллер, драма, мелодрама, военный, 2016] BDRip-AVC, Dub+Sub [Лицензия]

salma3

263 | 14

1.46 ГБ

В этой теме нет новых непрочитанных сообщений. Союзники / Allied [боевик, триллер, драма, мелодрама, военный, 2016] BDRip, Dub+Sub [Лицензия]

salma3

826 | 139

2.18 ГБ

В этой теме нет новых непрочитанных сообщений. Союзники / Allied [боевик, триллер, драма, мелодрама, военный, 2016] BDRip-AVC, Dub+Sub [Лицензия]

salma3

569 | 44

2.2 ГБ

В этой теме нет новых непрочитанных сообщений. Союзники / Allied [боевик, триллер, драма, мелодрама, военный, 2016] BDRip 1080p, Dub+Sub [Лицензия]

salma3

669 | 167

11.01 ГБ

В этой теме нет новых непрочитанных сообщений. Союзники / Allied (Боевик, триллер, драма, мелодрама, военный, 2016) BDRip 720p от ExKinoRay | L

marya111

2720 | 840

5.26 ГБ

В этой теме нет новых непрочитанных сообщений. Союзники / Allied [боевик, триллер, драма, 2016] UHD BDRemux 2160p, Dub+Sub [Лицензия] [ 4K]

salma3

6 | 11

61.26 ГБ


Начать новую тему Ответить на тему  [ 1 сообщение ] 




Для Мосгорсуда, Роскомнадзора и рекламодателей:: mosgorsud-torrent[собачка]yandex.ru
cron