Торрент файл
скачать торрент магнет ссылка Добавлен: 24 апр 2017, 12:38
Размер: 2.08 ГБ
Сидеров: 368
Личеров: 63
Автор

СообщениеДобавлено: 24 апр 2017, 12:38 

В сети
Супермодератор
Аватара пользователя
Дата регистрации:
15 фев 2012, 16:44
Возраст: 28
Спасибо: 7204 / 2147
Сообщения: 65202
Страна: Россия
Жанр: фантастика, фэнтези, боевик, приключения
Возраст: 12+
Режиссер: Сарик Андреасян

В ролях: Антон Пампушный, Санжар Мади, Себастьян Сисак, Алина Кизиярова-Ланина, Станислав Ширин, Валерия Шкирандо, Вячеслав Разбегаев, Александр Семенов, Владимир Бутенко, Мила Максимова

Описание: Во времена Холодной войны секретная организация «Патриот» создала отряд супергероев, в который вошли участники из различных советских республик. Долгие годы героям приходилось скрывать свою сущность, однако в тяжелые для страны времена они вновь берутся за дело.

Продолжительность: 01:28:57
Перевод: Оригинал (русский)
Оригинальная дорожка: нет
Автор рипа:
Качество видео: BDRip 720p Исходник: Blu-Ray (1080p) Формат: mp4
Видео кодек: MPEG-4 AVC Аудио кодек: AAC
Видео: 1280x536 (2.40:1) at 24.000 fps, AVC at 3 207 kbps avg, 0.195 bit/pixel
Аудио №1 Rus: 48.0 KHz, AAC, 2 ch, 128.0 Kbps
Субтитры: нет
Навигация по главам: есть
Размер: 2.08 GiB
avs [info]: 1280x536p 1:1 @ 24/1 fps (cfr)
x264 [info]: using SAR=1/1
x264 [info]: using cpu capabilities: MMX2 SSE2Fast SSSE3 Cache64
x264 [info]: profile High, level 4.1
x264 [info]: frame I:1153 Avg QP:14.58 size:108530
x264 [info]: frame P:29346 Avg QP:18.10 size: 34543
x264 [info]: frame B:97590 Avg QP:20.27 size: 10255
x264 [info]: consecutive B-frames: 2.9% 3.9% 6.3% 25.7% 19.9% 28.3% 8.1% 2.5% 2.3%
x264 [info]: mb I I16..4: 5.3% 70.4% 24.3%
x264 [info]: mb P I16..4: 1.8% 12.1% 1.8% P16..4: 38.0% 24.3% 13.6% 0.0% 0.0% skip: 8.3%
x264 [info]: mb B I16..4: 0.2% 1.4% 0.3% B16..8: 37.7% 8.9% 2.3% direct: 6.7% skip:42.6% L0:41.7% L1:45.1% BI:13.2%
x264 [info]: 8x8 transform intra:74.7% inter:66.2%
x264 [info]: coded y,uvDC,uvAC intra: 75.5% 81.0% 53.1% inter: 23.9% 27.6% 5.8%
x264 [info]: i16 v,h,dc,p: 28% 26% 8% 39%
x264 [info]: i8 v,h,dc,ddl,ddr,vr,hd,vl,hu: 19% 18% 19% 5% 7% 7% 8% 7% 8%
x264 [info]: i4 v,h,dc,ddl,ddr,vr,hd,vl,hu: 22% 19% 12% 6% 10% 9% 9% 7% 7%
x264 [info]: i8c dc,h,v,p: 50% 22% 19% 9%
x264 [info]: Weighted P-Frames: Y:5.9% UV:3.5%
x264 [info]: ref P L0: 50.5% 13.7% 15.7% 6.1% 5.0% 3.6% 3.3% 2.0% 0.2% 0.0%
x264 [info]: ref B L0: 77.6% 10.4% 5.5% 2.7% 2.1% 1.3% 0.5%
x264 [info]: ref B L1: 94.8% 5.2%
x264 [info]: kb/s:3207.20
encoded 128089 frames, 2.82 fps, 3207.20 kb/s

General
Complete name : ...Zashhitniki_2017_KinoGadget.mp4
Format : MPEG-4
Format profile : Base Media
Codec ID : isom (isom)
File size : 2.08 GiB
Duration : 1 h 28 min
Overall bit rate mode : Variable
Overall bit rate : 3 343 kb/s
Movie name : Защитники | KinoGadget
Performer : Сарик Андреасян
Director : Сарик Андреасян
Actor : Антон Пампушный / Санжар Мади / Себастьян Сисак / Алина Кизиярова-Ланина / Станислав Ширин / Валерия Шкирандо / Вячеслав Разбегаев / Александр Семенов / Владимир Бутенко / Мила Максимова
Screenplay by : Андрей Гаврилов
Producer : Сарик Андреасян / Гевонд Андреасян / Владимир Поляков
Genre : Action, Adventure
ContentType : Short Film
Recorded date : 2017
Encoded date : UTC 2017-04-23 04:09:09
Tagged date : UTC 2017-04-23 04:29:32
Cover : Yes
ContentRating : mpaa|PG-13|300|
LongDeion : Во времена Холодной войны секретная организация «Патриот» создала отряд супергероев, в который вошли участники из различных советских республик. Долгие годы героям приходилось скрывать свою сущность, однако в тяжелые для страны времена они вновь берутся за дело.
HDVideo : Yes
Video
ID : 1
Format : AVC
Format/Info : Advanced Video Codec
Format profile : [email protected]
Format settings, CABAC : Yes
Format settings, ReFrames : 8 frames
Codec ID : avc1
Codec ID/Info : Advanced Video Coding
Duration : 1 h 28 min
Bit rate : 3 207 kb/s
Maximum bit rate : 17.6 Mb/s
Width : 1 280 pixels
Height : 536 pixels
Display aspect ratio : 2.40:1
Frame rate mode : Constant
Frame rate : 24.000 FPS
Color space : YUV
Chroma subsampling : 4:2:0
Bit depth : 8 bits
Scan type : Progressive
Bits/(Pixel*Frame) : 0.195
Stream size : 1.99 GiB (96%)
Writing library : x264 core 148 r2744 b97ae06
Encoding settings : cabac=1 / ref=8 / deblock=1:-1:-1 / analyse=0x3:0x113 / me=umh / subme=7 / psy=1 / psy_rd=1.00:0.00 / mixed_ref=1 / me_range=32 / chroma_me=1 / trellis=2 / 8x8dct=1 / cqm=0 / deadzone=21,11 / fast_pskip=0 / chroma_qp_offset=-2 / threads=3 / lookahead_threads=1 / sliced_threads=0 / nr=0 / decimate=1 / interlaced=0 / bluray_compat=0 / constrained_intra=0 / bframes=8 / b_pyramid=2 / b_adapt=2 / b_bias=0 / direct=1 / weightb=1 / open_gop=0 / weightp=2 / keyint=250 / keyint_min=25 / scenecut=40 / intra_refresh=0 / rc_lookahead=60 / rc=crf / mbtree=1 / crf=18.0 / qcomp=0.60 / qpmin=0 / qpmax=69 / qpstep=4 / vbv_maxrate=62500 / vbv_bufsize=78125 / crf_max=0.0 / nal_hrd=none / filler=0 / ip_ratio=1.40 / aq=1:1.00
Encoded date : UTC 2017-04-23 02:11:30
Tagged date : UTC 2017-04-23 04:10:05
Audio
ID : 2
Format : AAC
Format/Info : Advanced Audio Codec
Format profile : LC
Codec ID : 40
Duration : 1 h 28 min
Bit rate mode : Variable
Bit rate : 128 kb/s
Maximum bit rate : 135 kb/s
Channel(s) : 2 channels
Channel positions : Front: L R
Sampling rate : 48.0 kHz
Frame rate : 46.875 FPS (1024 spf)
Compression mode : Lossy
Stream size : 81.4 MiB (4%)
Language : Russian
Encoded date : UTC 2017-04-23 02:16:34
Tagged date : UTC 2017-04-23 04:10:05
Menu




_________________
Проголосуй за трекер Открытый торрент трекер - RUS-MEDIA.ORG

Проголосуй Открытый торрент трекер - RUS-MEDIA.ORG


Вернуться к началу
 Профиль Отправить личное сообщение  
 
   Похожие торренты   Автор   Торрент   Размер 
В этой теме нет новых непрочитанных сообщений. Защитники [Фантастика, фэнтези, боевик, 2016] BDRip 720p, [Лицензия]

salma3

1376 | 465

4.09 ГБ

В этой теме нет новых непрочитанных сообщений. Доктор Стрэндж / Doctor Strange [фантастика, фэнтези, боевик, приключения, 2016] BDRip 720p, Dub [iPad] [Лицензия]

salma3

143 | 10

2.04 ГБ

В этой теме нет новых непрочитанных сообщений. Защитники [Фантастика, фэнтези, боевик, 2016] BDRip-AVC, [Лицензия]

salma3

585 | 150

1.46 ГБ

В этой теме нет новых непрочитанных сообщений. Защитники [Фантастика, фэнтези, боевик, 2016] BDRip, [Лицензия]

salma3

4048 | 627

1.46 ГБ

В этой теме нет новых непрочитанных сообщений. Защитники [фантастика, фэнтези, боевик, приключения, 2017] WEB-DLRip-AVC

salma3

844 | 41

1.36 ГБ

В этой теме нет новых непрочитанных сообщений. Кредо убийцы / Assassin's Creed [фантастика, фэнтези, боевик, приключения, 2016] BDRip 720p, Dub [iPad]

salma3

195 | 22

1.94 ГБ

В этой теме нет новых непрочитанных сообщений. Защитники / The Defenders [S01] [фантастика, боевик, криминал, приключения, 2017] WEBRip 720p, Dvo [SunshineStudio]

salma3

1092 | 403

9.38 ГБ


Начать новую тему Ответить на тему  [ 1 сообщение ] 




Для Мосгорсуда, Роскомнадзора и рекламодателей:: mosgorsud-torrent[собачка]yandex.ru
cron