Торрент файл
скачать торрент магнет ссылка Добавлен: 12 апр 2017, 10:59
Размер: 2.56 ГБ
Сидеров: 41
Личеров: 25
Автор

СообщениеДобавлено: 12 апр 2017, 10:59 

Не в сети
Супермодератор
Аватара пользователя
Дата регистрации:
15 фев 2012, 16:44
Возраст: 28
Спасибо: 7205 / 2147
Сообщения: 65364
Страна: США
Жанр: комедия
Возраст: 18+
Режиссер: Сет МакФарлейн
В ролях: Марк Уолберг, Сет МакФарлейн, Аманда Сайфред, Джованни Рибизи, Джон Слэттери, Морган Фримен, Джессика Барт, Сэм Дж. Джонс, Патрик Варбертон, Майкл Дорн, Билл Смитрович, Коко Браун, Джон Кэрролл Линч, Рон Кэнада, Лиам Нисон, Дэннис Хэйсбёрт, Патрик Стюарт, Том Брэйди, Джей Лено, Джимми Киммел
Описание: Плюшевый беспредельщик продолжает сводить с ума чопорную интеллигенцию. На этот раз говорящий медвежонок с большим эго и его длинноногая блондинка решили завести ребёнка. Там, где не постаралась природа, на помощь приходят звёздные доноры, городские сумасшедшие и верный друг Джонни. Он только что расстался с Лори и готов к новым авантюрам. Третий здесь совсем не лишний.
Продолжительность: 02:05:50
Перевод: Дублированный [iTunes], вырезанные вставки озвучены Б.Савченко "Hamsterstudio"
Оригинальная дорожка: нет
Автор рипа:
Качество видео: BDRip 720p Исходник: Blu-Ray Remux (1080p) Формат: mp4
Видео кодек: MPEG-4 AVC Аудио кодек: AAC
Видео: 1280x534 (2.40:1) at 23.976 fps, AVC at 2 782 kbps avg, 0.170 bit/pixel
Аудио №1 Rus: 48.0 KHz, AAC, 2 ch, 128.0 Kbps
Субтитры: нет
Навигация по главам: есть
Размер: 2.56 GiB
Озвучивание: Дублированное- iTunes.
PROPER - Полный перевод! Сцены вырезанные цензурой - озвучены Б.Савченко "Hamsterstudio"

avs [info]: 1280x534p 1:1 @ 24000/1001 fps (cfr)
x264 [info]: using SAR=1/1
x264 [info]: using cpu capabilities: MMX2 SSE2Fast SSSE3 Cache64
x264 [info]: profile High, level 4.1
x264 [info]: frame I:2153 Avg QP:13.46 size:130592
x264 [info]: frame P:38193 Avg QP:16.82 size: 33623
x264 [info]: frame B:140696 Avg QP:20.01 size: 7539
x264 [info]: consecutive B-frames: 2.1% 1.8% 8.0% 22.1% 18.5% 32.8% 6.4% 3.4% 4.9%
x264 [info]: mb I I16..4: 5.2% 67.0% 27.8%
x264 [info]: mb P I16..4: 0.8% 7.3% 1.6% P16..4: 40.4% 26.6% 16.6% 0.0% 0.0% skip: 6.8%
x264 [info]: mb B I16..4: 0.0% 0.6% 0.2% B16..8: 39.8% 7.8% 2.1% direct: 3.7% skip:45.7% L0:43.0% L1:44.4% BI:12.6%
x264 [info]: 8x8 transform intra:71.7% inter:58.8%
x264 [info]: coded y,uvDC,uvAC intra: 85.5% 89.9% 72.9% inter: 17.5% 19.3% 4.3%
x264 [info]: i16 v,h,dc,p: 38% 17% 6% 40%
x264 [info]: i8 v,h,dc,ddl,ddr,vr,hd,vl,hu: 23% 17% 15% 5% 8% 9% 8% 8% 9%
x264 [info]: i4 v,h,dc,ddl,ddr,vr,hd,vl,hu: 25% 17% 10% 6% 9% 9% 9% 7% 7%
x264 [info]: i8c dc,h,v,p: 46% 20% 22% 11%
x264 [info]: Weighted P-Frames: Y:3.1% UV:2.1%
x264 [info]: ref P L0: 50.7% 11.0% 15.7% 7.0% 5.1% 4.3% 3.4% 2.5% 0.3% 0.0%
x264 [info]: ref B L0: 75.9% 11.3% 6.0% 2.8% 2.2% 1.2% 0.6%
x264 [info]: ref B L1: 91.9% 8.1%
x264 [info]: kb/s:2782.22
encoded 181042 frames, 2.98 fps, 2782.22 kb/s

General
Complete name : ...Tretij_lishnij_2_2015_KinoGadget.mp4
Format : MPEG-4
Format profile : Base Media
Codec ID : isom (isom)
File size : 2.56 GiB
Duration : 2 h 5 min
Overall bit rate mode : Variable
Overall bit rate : 2 918 kb/s
Movie name : Третий лишний 2 | KinoGadget
Performer : Сет МакФарлейн
Director : Сет МакФарлейн
Actor : Марк Уолберг / Сет МакФарлейн / Аманда Сайфред / Джованни Рибизи / Джон Слэттери / Морган Фримен / Джессика Барт / Сэм Дж. Джонс / Патрик Варбертон / Майкл Дорн / Билл Смитрович / Коко Браун / Джон Кэрролл Линч / Рон Кэнада / Лиам Нисон / Дэннис Хэйсбёрт / Патрик Стюарт / Том Брэйди / Джей Лено / Джимми Киммел
Screenplay by : Сет МакФарлейн / Алек Салкин / Уэллесли Уайлд
Producer : Джейсон Кларк / Джон Джейкобс / Сет МакФарлейн
Genre : Comedy
ContentType : Short Film
Recorded date : 2015
Encoded date : UTC 2017-04-11 13:46:08
Tagged date : UTC 2017-04-11 14:14:35
Cover : Yes
ContentRating : mpaa|R|400|
LongDeion : Плюшевый беспредельщик продолжает сводить с ума чопорную интеллигенцию. На этот раз говорящий медвежонок с большим эго и его длинноногая блондинка решили завести ребёнка. Там, где не постаралась природа, на помощь приходят звёздные доноры, городские сумасшедшие и верный друг Джонни. Он только что расстался с Лори и готов к новым авантюрам. Третий здесь совсем не лишний.
HDVideo : Yes
Video
ID : 1
Format : AVC
Format/Info : Advanced Video Codec
Format profile : [email protected]
Format settings, CABAC : Yes
Format settings, ReFrames : 8 frames
Codec ID : avc1
Codec ID/Info : Advanced Video Coding
Duration : 2 h 5 min
Bit rate : 2 782 kb/s
Maximum bit rate : 18.5 Mb/s
Width : 1 280 pixels
Height : 534 pixels
Display aspect ratio : 2.40:1
Frame rate mode : Constant
Frame rate : 23.976 (24000/1001) FPS
Color space : YUV
Chroma subsampling : 4:2:0
Bit depth : 8 bits
Scan type : Progressive
Bits/(Pixel*Frame) : 0.170
Stream size : 2.45 GiB (95%)
Writing library : x264 core 148 r2638 7599210
Encoding settings : cabac=1 / ref=8 / deblock=1:-2:-1 / analyse=0x3:0x113 / me=umh / subme=7 / psy=1 / psy_rd=1.00:0.00 / mixed_ref=1 / me_range=32 / chroma_me=1 / trellis=2 / 8x8dct=1 / cqm=0 / deadzone=21,11 / fast_pskip=0 / chroma_qp_offset=-2 / threads=3 / lookahead_threads=1 / sliced_threads=0 / nr=0 / decimate=1 / interlaced=0 / bluray_compat=0 / constrained_intra=0 / bframes=8 / b_pyramid=2 / b_adapt=2 / b_bias=0 / direct=1 / weightb=1 / open_gop=0 / weightp=2 / keyint=250 / keyint_min=25 / scenecut=40 / intra_refresh=0 / rc_lookahead=60 / rc=crf / mbtree=1 / crf=17.0 / qcomp=0.60 / qpmin=0 / qpmax=69 / qpstep=4 / vbv_maxrate=62500 / vbv_bufsize=78125 / crf_max=0.0 / nal_hrd=none / filler=0 / ip_ratio=1.40 / aq=1:1.00
Encoded date : UTC 2017-04-11 09:02:13
Tagged date : UTC 2017-04-11 13:47:54
Audio
ID : 2
Format : AAC
Format/Info : Advanced Audio Codec
Format profile : LC
Codec ID : 40
Duration : 2 h 5 min
Bit rate mode : Variable
Bit rate : 128 kb/s
Maximum bit rate : 135 kb/s
Channel(s) : 2 channels
Channel positions : Front: L R
Sampling rate : 48.0 kHz
Frame rate : 46.875 FPS (1024 spf)
Compression mode : Lossy
Stream size : 115 MiB (4%)
Title : Dub [iTunes]
Language : Russian
Encoded date : UTC 2017-04-11 09:10:55
Tagged date : UTC 2017-04-11 13:47:54
Menu
00:00:00.000 : 00:00:00.000
00:09:08.006 : 00:09:08.006
00:17:30.508 : 00:17:30.508
00:22:03.906 : 00:22:03.906
00:30:27.409 : 00:30:27.409
00:39:22.402 : 00:39:22.402
00:48:15.226 : 00:48:15.226
00:53:39.550 : 00:53:39.550
01:00:09.356 : 01:00:09.356
01:04:54.057 : 01:04:54.057
01:10:15.044 : 01:10:15.044
01:16:16.238 : 01:16:16.238
01:20:26.780 : 01:20:26.780
01:26:08.830 : 01:26:08.830
01:32:42.682 : 01:32:42.682
01:39:39.473 : 01:39:39.473
01:45:14.224 : 01:45:14.224
01:49:59.218 : 01:49:59.218
01:54:50.217 : 01:54:50.217
01:58:43.491 : 01:58:43.491
]




_________________
Проголосуй за трекер Открытый торрент трекер - RUS-MEDIA.ORG

Проголосуй Открытый торрент трекер - RUS-MEDIA.ORG


Вернуться к началу
 Профиль Отправить личное сообщение  
 
   Похожие торренты   Автор   Торрент   Размер 
В этой теме нет новых непрочитанных сообщений. Третий лишний / Ted [фэнтези, комедия, 2012] BDRip 720p, Dub [iPad] [Лицензия]

salma3

16 | 10

2.67 ГБ

В этой теме нет новых непрочитанных сообщений. Третий лишний 2  / Ted 2 (Сет МакФарлейн) [комедия, 2015] WEB-DL 720p, Dub [iTunes]

Dracon

374 | 40

3.51 ГБ

В этой теме нет новых непрочитанных сообщений. Третий лишний 2  / Ted 2 (Сет МакФарлейн) [комедия, 2015] BDRip, Dub [iTunes]

Dracon

23 | 7

1.47 ГБ

В этой теме нет новых непрочитанных сообщений. Шпион / Spy (Пол Фиг) [Боевик, комедия, 2015] BDRip 720p, Dub [Расширенная версия | iTunes]

Dracon

61 | 4

6.91 ГБ

В этой теме нет новых непрочитанных сообщений. Третий лишний 2 / Ted 2 (Сет МакФарлейн) [комедия, 2015] WEB-DLRip, Dub [iTunes]

slawa4155

43 | 2

2.05 ГБ

В этой теме нет новых непрочитанных сообщений. Третий лишний 2 / Ted 2 (Сет МакФарлейн) [комедия, 2015] WEB-DL 1080p, Dub [iTunes]

Dracon

97 | 6

3.83 ГБ

В этой теме нет новых непрочитанных сообщений. Шпион / Spy (Пол Фиг) [Боевик, комедия, 2015] BDRip 1080p, Dub [Расширенная версия | iTunes]

Dracon

80 | 11

10.19 ГБ


Начать новую тему Ответить на тему  [ 1 сообщение ] 




Для Мосгорсуда, Роскомнадзора и рекламодателей:: mosgorsud-torrent[собачка]yandex.ru
cron