Торрент файл
скачать торрент магнет ссылка Добавлен: 12 апр 2017, 10:54
Размер: 2.73 ГБ
Сидеров: 97
Личеров: 40
Автор

СообщениеДобавлено: 12 апр 2017, 10:54 

Не в сети
Супермодератор
Аватара пользователя
Дата регистрации:
15 фев 2012, 16:44
Возраст: 28
Спасибо: 7290 / 2147
Сообщения: 70611
Страна: США, Австралия
Жанр: фантастика, фэнтези, боевик, комедия
Возраст: 16+
Режиссер: Пол Фиг
В ролях: Мелисса МакКарти, Кристен Уиг, Кейт МакКиннон, Лесли Джонс, Крис Хемсворт, Сесили Стронг, Энди Гарсиа, Нил Кэйси, Чарльз Дэнс, Майкл Кеннет Уильямс
Описание: Тридцать лет назад охотники за привидениями спасли Нью-Йорк от нашествия призраков, но теперь городу вновь угрожает опасность. Былые герои не могут стать на его защиту, но находятся и другие отважные люди, всю свою жизнь посвятившие изучению паранормальных явлений. Эбби Йейтс объединяется с Эрин Гилберт, пожалуй лучшим специалистом в квантовой физике, и вместе они собирают команду новых охотников за привидениями, в которую принимают отличного инженера Джиллиан Хольцман, сотрудницу метрополитена Пэтти Толан, знающую город как свои пять пальцев, и секретаря — настоящего красавчика Кэвина. Вместе они начинают борьбу с нечистой силой, терроризирующей мегаполис…
Продолжительность: 01:56:35
Перевод: Дублированный [Лицензия]
Оригинальная дорожка: нет
Автор рипа:
Качество видео: BDRip 720p Исходник: Blu-Ray Remux (1080p) Формат: mp4
Видео кодек: MPEG-4 AVC Аудио кодек: AAC
Видео: 1280x536 (2.40:1) at 23.976 fps, AVC at 3 224 kbps avg, 0.196 bit/pixel
Аудио №1 Rus: 48.0 KHz, AAC, 2 ch, 128.0 Kbps
Субтитры: русские (Forced)
Навигация по главам: есть
General
Complete name : ...Oxotniki_za_privideniyami_2016_KinoGadget.mp4
Format : MPEG-4
Format profile : Base Media
Codec ID : isom (isom/avc1/iso6)
File size : 2.73 GiB
Duration : 1 h 56 min
Overall bit rate mode : Variable
Overall bit rate : 3 358 kb/s
Movie name : Охотники за привидениями | KinoGadget
Performer : Пол Фиг
Director : Пол Фиг
Actor : Мелисса МакКарти / Кристен Уиг / Кейт МакКиннон / Лесли Джонс / Крис Хемсворт / Сесили Стронг / Энди Гарсиа / Нил Кэйси / Чарльз Дэнс / Майкл Кеннет Уильямс
Screenplay by : Кэти Дипполд / Пол Фиг / Айвен Райтман
Producer : Эми Паскаль / Айвен Райтман / Дэн Эйкройд
Genre : Action, Comedy
ContentType : Short Film
Recorded date : 2016
Encoded date : UTC 2016-12-09 23:14:54
Tagged date : UTC 2016-12-10 07:08:55
Cover : Yes
ContentRating : mpaa|PG-13|300|
LongDeion : Тридцать лет назад охотники за привидениями спасли Нью-Йорк от нашествия призраков, но теперь городу вновь угрожает опасность. Былые герои не могут стать на его защиту, но находятся и другие отважные люди, всю свою жизнь посвятившие изучению паранормальных явлений. Эбби Йейтс объединяется с Эрин Гилберт, пожалуй лучшим специалистом в квантовой физике, и вместе они собирают команду новых охотников за привидениями, в которую принимают отличного инженера Джиллиан Хольцман,
HDVideo : Yes
Video
ID : 1
Format : AVC
Format/Info : Advanced Video Codec
Format profile : [email protected]
Format settings, CABAC : No
Format settings, ReFrames : 3 frames
Codec ID : avc1
Codec ID/Info : Advanced Video Coding
Duration : 1 h 56 min
Bit rate : 3 224 kb/s
Maximum bit rate : 16.7 Mb/s
Width : 1 280 pixels
Height : 536 pixels
Display aspect ratio : 2.40:1
Frame rate mode : Constant
Frame rate : 23.976 (24000/1001) FPS
Color space : YUV
Chroma subsampling : 4:2:0
Bit depth : 8 bits
Scan type : Progressive
Bits/(Pixel*Frame) : 0.196
Stream size : 2.63 GiB (96%)
Writing library : x264 core 148 r2638 7599210
Encoding settings : cabac=0 / ref=3 / deblock=1:-1:-1 / analyse=0x1:0x111 / me=umh / subme=7 / psy=1 / psy_rd=1.00:0.15 / mixed_ref=1 / me_range=32 / chroma_me=1 / trellis=2 / 8x8dct=0 / cqm=0 / deadzone=21,11 / fast_pskip=1 / chroma_qp_offset=-3 / threads=3 / lookahead_threads=1 / sliced_threads=0 / nr=0 / decimate=1 / interlaced=0 / bluray_compat=0 / constrained_intra=0 / bframes=0 / weightp=0 / keyint=240 / keyint_min=23 / scenecut=40 / intra_refresh=0 / rc_lookahead=40 / rc=crf / mbtree=1 / crf=21.0 / qcomp=0.60 / qpmin=0 / qpmax=69 / qpstep=4 / vbv_maxrate=14000 / vbv_bufsize=14000 / crf_max=0.0 / nal_hrd=none / filler=0 / ip_ratio=1.40 / aq=1:1.00
Encoded date : UTC 2016-12-09 23:14:54
Tagged date : UTC 2016-12-09 23:17:22
Audio
ID : 2
Format : AAC
Format/Info : Advanced Audio Codec
Format profile : LC
Codec ID : 40
Duration : 1 h 56 min
Bit rate mode : Variable
Bit rate : 128 kb/s
Maximum bit rate : 135 kb/s
Channel(s) : 2 channels
Channel positions : Front: L R
Sampling rate : 48.0 kHz
Frame rate : 46.875 FPS (1024 spf)
Compression mode : Lossy
Stream size : 107 MiB (4%)
Title : dub [license]
Language : Russian
Encoded date : UTC 2016-12-09 12:48:36
Tagged date : UTC 2016-12-09 23:17:22
Text
ID : 3
Format : Timed Text
Codec ID : tx3g
Duration : 1 h 49 min
Bit rate mode : Variable
Bit rate : 2 b/s
Stream size : 1.53 KiB (0%)
Language : Russian
Forced : No
Encoded date : UTC 2016-12-09 23:17:22
Tagged date : UTC 2016-12-09 23:17:22
Menu




_________________
Проголосуй за трекер Открытый торрент трекер - RUS-MEDIA.ORG

Проголосуй Открытый торрент трекер - RUS-MEDIA.ORG


Вернуться к началу
 Профиль Отправить личное сообщение  
 
   Похожие торренты   Автор   Торрент   Размер 
В этой теме нет новых непрочитанных сообщений. Охотники за привидениями / Ghostbusters (2016) BDRip 1080p | Theatrical Cut | Лицензия

marya111

185 | 31

12.77 ГБ

В этой теме нет новых непрочитанных сообщений. Охотники за привидениями / Ghostbusters (Фантастика, фэнтези, боевик, комедия, 2016) BDRip-AVC | Theatrical Cut | Лицензия

marya111

142 | 14

2.19 ГБ

В этой теме нет новых непрочитанных сообщений. Охотники за привидениями / Ghostbusters [IMAX] (фантастика, фэнтези, боевик, комедия, 2016) BDRip от HQCLUB | Extended Cut | Лицензия

marya111

252 | 28

2.18 ГБ

В этой теме нет новых непрочитанных сообщений. Охотники за привидениями / Ghostbusters (фантастика, фэнтези, боевик, комедия, 2016) BDRip-AVC от HELLYWOOD | Расширенная версия | Лицензия

marya111

165 | 10

1.93 ГБ

В этой теме нет новых непрочитанных сообщений. Охотники за привидениями / Ghostbusters [Фантастика, фэнтези, боевик, комедия, 2016] BDRip 720p, Dub [iTunes]

marya111

389 | 40

4.88 ГБ

В этой теме нет новых непрочитанных сообщений. Охотники за привидениями / Ghostbusters (Фантастика, фэнтези, боевик, комедия, 2016) BDRip 1080p | Theatrical Cut | 3D-Video | HSBS | Лицензия

marya111

238 | 39

13.17 ГБ

В этой теме нет новых непрочитанных сообщений. Охотники за привидениями / Ghostbusters [Фантастика, фэнтези, комедия, 2016] WEB-DL 720p, Dub [iTunes]

salma3

512 | 206

3.83 ГБ


Начать новую тему Ответить на тему  [ 1 сообщение ] 




Для Мосгорсуда, Роскомнадзора и рекламодателей:: mosgorsud-torrent[собачка]yandex.ru
cron