Торрент файл
скачать торрент магнет ссылка Добавлен: 11 апр 2017, 11:02
Размер: 2.07 ГБ
Сидеров: 61
Личеров: 28
Автор

СообщениеДобавлено: 11 апр 2017, 11:02 

Не в сети
Супермодератор
Аватара пользователя
Дата регистрации:
15 фев 2012, 16:44
Возраст: 28
Спасибо: 7290 / 2147
Сообщения: 70823
Год выпуска: 2005
Страна: Великобритания, Чехия, Германия, США
Жанр: ужасы, фантастика, боевик, приключения
Возраст: 16+
Режиссер: Анджей Бартковяк
В ролях: Доби Опарей, Карл Урбан, Дуэйн Джонсон, Розамунд Пайк, Разаак Адоти, Ричард Брэйк, Аль Уивер, Декстер Флетчер, Брайан Стил, Бен Дэниелс, Йао Чин, Роберт Расселл, Дэниэл Йорк, Йен Хьюз, Сара Хотон, Бланка Яросова, Владислав Динтера, Пётр Хнетковски, Ярослав Псеничка, Марек Мотличек, Даг Джонс, Рана Моррисон, Барбара Неделякова, Роберт Нельсон
Описание: 2145 год. После того, как из далёкой научной лаборатории Олдуай был получен сигнал о помощи, на место ― планету Марс ― прибывает отряд космического спецназа и обнаруживает разгромленную станцию. Вскоре выясняется, что на людей здесь охотятся полчища ужасных существ-мутантов…
Продолжительность: 01:52:44
Перевод: Дублированный
Оригинальная дорожка: нет
Автор рипа:
Качество видео: BDRip 720p
Формат: mp4
Видео кодек: MPEG-4 AVC Аудио кодек: AAC
Видео: 1280x544 (2.35:1) at 23.976 fps, AVC at 2 487 kbps avg, 0.149 bit/pixel
Аудио №1 Rus: 48.0 KHz, AAC, 2 ch, 128.0 Kbps
Субтитры: нет
Навигация по главам: нет
Размер: 2.07 GiB
avs [info]: 1280x544p 1:1 @ 24000/1001 fps (cfr)
x264 [info]: using SAR=1/1
x264 [info]: using cpu capabilities: MMX2 SSE2Fast SSSE3 Cache64
x264 [info]: profile High, level 4.1
x264 [info]: frame I:1489 Avg QP:11.71 size: 67988
x264 [info]: frame P:38263 Avg QP:15.59 size: 22078
x264 [info]: frame B:122439 Avg QP:17.37 size: 9452
x264 [info]: consecutive B-frames: 3.1% 4.6% 6.7% 31.9% 11.4% 31.8% 2.9% 6.4% 1.3%
x264 [info]: mb I I16..4: 12.7% 70.8% 16.5%
x264 [info]: mb P I16..4: 4.0% 14.3% 2.1% P16..4: 36.5% 18.5% 9.7% 0.0% 0.0% skip:14.8%
x264 [info]: mb B I16..4: 0.3% 1.0% 0.1% B16..8: 37.2% 7.8% 1.3% direct: 9.2% skip:43.1% L0:44.8% L1:48.4% BI: 6.8%
x264 [info]: 8x8 transform intra:70.0% inter:67.9%
x264 [info]: coded y,uvDC,uvAC intra: 56.7% 79.4% 65.1% inter: 18.7% 31.1% 12.5%
x264 [info]: i16 v,h,dc,p: 59% 13% 8% 20%
x264 [info]: i8 v,h,dc,ddl,ddr,vr,hd,vl,hu: 17% 13% 34% 5% 7% 6% 6% 6% 6%
x264 [info]: i4 v,h,dc,ddl,ddr,vr,hd,vl,hu: 30% 18% 22% 5% 7% 6% 6% 4% 3%
x264 [info]: i8c dc,h,v,p: 59% 15% 17% 8%
x264 [info]: Weighted P-Frames: Y:6.7% UV:4.7%
x264 [info]: ref P L0: 49.9% 5.7% 17.2% 7.6% 5.3% 4.3% 3.5% 2.2% 2.0% 1.8% 0.4% 0.0%
x264 [info]: ref B L0: 76.1% 10.7% 5.5% 2.3% 1.9% 1.4% 1.2% 0.6% 0.3%
x264 [info]: ref B L1: 93.0% 7.0%
x264 [info]: kb/s:2487.42
encoded 162191 frames, 2.34 fps, 2487.42 kb/s

General
Complete name : ...Dum_2005_rasshirennaya_versiya_KinoGadget.mp4
Format : MPEG-4
Format profile : Base Media
Codec ID : isom (isom)
File size : 2.07 GiB
Duration : 1 h 52 min
Overall bit rate mode : Variable
Overall bit rate : 2 623 kb/s
Movie name : Дум | KinoGadget
Performer : Анджей Бартковяк
Director : Анджей Бартковяк
Actor : Доби Опарей / Карл Урбан / Дуэйн Джонсон / Розамунд Пайк / Разаак Адоти / Ричард Брэйк / Аль Уивер / Декстер Флетчер / Брайан Стил / Бен Дэниелс
Screenplay by : Дэйв Каллахэм / Уэсли Стрик
Producer : Лоренцо Ди Бонавентура / Джон Уэллс / Лаура Холстейн
Genre : Action, Adventure, Horror
ContentType : Short Film
Recorded date : 2005
Encoded date : UTC 2017-04-10 13:20:01
Tagged date : UTC 2017-04-10 13:36:16
Cover : Yes
ContentRating : mpaa|R|400|
LongDeion : 2145 год. После того, как из далёкой научной лаборатории Олдуай был получен сигнал о помощи, на место ― планету Марс ― прибывает отряд космического спецназа и обнаруживает разгромленную станцию. Вскоре выясняется, что на людей здесь охотятся полчища ужасных существ-мутантов…
HDVideo : Yes
Video
ID : 1
Format : AVC
Format/Info : Advanced Video Codec
Format profile : [email protected]
Format settings, CABAC : Yes
Format settings, ReFrames : 10 frames
Codec ID : avc1
Codec ID/Info : Advanced Video Coding
Duration : 1 h 52 min
Bit rate : 2 487 kb/s
Maximum bit rate : 19.1 Mb/s
Width : 1 280 pixels
Height : 544 pixels
Display aspect ratio : 2.35:1
Frame rate mode : Constant
Frame rate : 23.976 (24000/1001) FPS
Color space : YUV
Chroma subsampling : 4:2:0
Bit depth : 8 bits
Scan type : Progressive
Bits/(Pixel*Frame) : 0.149
Stream size : 1.96 GiB (95%)
Writing library : x264 core 148 r2638 7599210
Encoding settings : cabac=1 / ref=10 / deblock=1:-2:-1 / analyse=0x3:0x113 / me=umh / subme=7 / psy=1 / psy_rd=1.00:0.00 / mixed_ref=1 / me_range=32 / chroma_me=1 / trellis=2 / 8x8dct=1 / cqm=0 / deadzone=21,11 / fast_pskip=0 / chroma_qp_offset=-2 / threads=3 / lookahead_threads=1 / sliced_threads=0 / nr=0 / decimate=1 / interlaced=0 / bluray_compat=0 / constrained_intra=0 / bframes=8 / b_pyramid=2 / b_adapt=2 / b_bias=0 / direct=1 / weightb=1 / open_gop=0 / weightp=2 / keyint=250 / keyint_min=25 / scenecut=40 / intra_refresh=0 / rc_lookahead=60 / rc=crf / mbtree=1 / crf=17.0 / qcomp=0.60 / qpmin=0 / qpmax=69 / qpstep=4 / vbv_maxrate=62500 / vbv_bufsize=78125 / crf_max=0.0 / nal_hrd=none / filler=0 / ip_ratio=1.40 / aq=1:1.00
Encoded date : UTC 2017-04-10 11:41:05
Tagged date : UTC 2017-04-10 13:20:49
Audio
ID : 2
Format : AAC
Format/Info : Advanced Audio Codec
Format profile : LC
Codec ID : 40
Duration : 1 h 52 min
Bit rate mode : Variable
Bit rate : 128 kb/s
Maximum bit rate : 135 kb/s
Channel(s) : 2 channels
Channel positions : Front: L R
Sampling rate : 48.0 kHz
Frame rate : 46.875 FPS (1024 spf)
Compression mode : Lossy
Stream size : 103 MiB (5%)
Title : Dub
Language : Russian
Encoded date : UTC 2017-04-10 11:59:24
Tagged date : UTC 2017-04-10 13:20:49




_________________
Проголосуй за трекер Открытый торрент трекер - RUS-MEDIA.ORG

Проголосуй Открытый торрент трекер - RUS-MEDIA.ORG


Вернуться к началу
 Профиль Отправить личное сообщение  
 
   Похожие торренты   Автор   Торрент   Размер 
В этой теме нет новых непрочитанных сообщений. Белоснежка и Охотник 2 [Расширенная версия] / The Huntsman: Winter's War [2016, фэнтези, боевик, приключения, BDRip, Avo [Гаврилов] [Расширенная версия]

salma3

61 | 15

1.46 ГБ

В этой теме нет новых непрочитанных сообщений. Третий лишний 2 / Ted 2 [комедия, 2015] BDRip 720p, Dub [Расширенная версия] [iPad] [iTunes]

salma3

42 | 25

2.56 ГБ

В этой теме нет новых непрочитанных сообщений. Дэдпул 2 / Deadpool 2 [Фантастика, боевик, комедия, 2018] BDRip 720p, Dub [Расширенная версия] [Лицензия]

salma3

0 | 0

9.09 ГБ

В этой теме нет новых непрочитанных сообщений. Чужой против Хищника / Alien vs. Predator [Фантастика, боевик, приключения, 2004] BDRip-HEVC 1080p, Dub [Расширенная версия]

salma3

39 | 6

5.41 ГБ

В этой теме нет новых непрочитанных сообщений. Отряд самоубийц / Suicide Squad (Фантастика, боевик, триллер, комедия, криминал, приключения, 2016) BDRip от MegaPeer | Расширенная версия | D

marya111

807 | 74

2.18 ГБ

В этой теме нет новых непрочитанных сообщений. Дум / Doom [ужасы, фантастика, боевик, 2005] BDRip-AVC, Dub [Unrated Extended Edition]

salma3

235 | 56

744.22 МБ

В этой теме нет новых непрочитанных сообщений. Дум / Doom [Ужасы, фантастика, боевик, 2005] BDRip 1080p, Dub [Unrated Extended Edition]

salma3

0 | 0

11.19 ГБ


Начать новую тему Ответить на тему  [ 1 сообщение ] 




Для Мосгорсуда, Роскомнадзора и рекламодателей:: mosgorsud-torrent[собачка]yandex.ru
cron