Торрент файл
скачать торрент магнет ссылка Добавлен: 10 апр 2017, 11:05
Размер: 2.12 ГБ
Сидеров: 0
Личеров: 0
Автор

СообщениеДобавлено: 10 апр 2017, 11:05 

Не в сети
Супермодератор
Аватара пользователя
Дата регистрации:
15 фев 2012, 16:44
Возраст: 28
Спасибо: 7290 / 2147
Сообщения: 70815
Страна: США, Новая Зеландия, Германия
Жанр: ужасы, триллер, драма, детектив
Возраст: 16+
Режиссер: Стефен Т. Кэй
В ролях: Бэрри Уотсон, Эмили Дешанель, Скайе МакКоул Бартусяк, Тори Массет, Эндрю Гловер, Люси Лоулесс, Чарльз Межер, Филип Гордон, Аарон Мерфи, Дженнифер Ракер
Описание: Бугимэн — мифическое, мистическое существо. В преданиях каждого народа есть такой монстр, живущий в детских ночных кошмарах. Тиму уже 20 лет, но Бугимэн до сих пор живет в его памяти, как жуткое существо, поглотившее его отца 16 лет тому назад. Реален ли Бугимэн?
И если нет, как тогда объяснить исчезновение отца Тима? Ответ скрыт в каждом темном углу, за каждой полузакрытой дверью в доме его детства — там, куда Тиму придется вернуться и узнать, наконец, ответ на леденящий душу вопрос — существует ли Бугимэн на самом деле?

Продолжительность: 01:28:52
Перевод: Дублированный
Оригинальная дорожка: есть
Автор рипа:
Качество видео: BDRip 720p Исходник: Blu-Ray Remux (1080p) Формат: mp4
Видео кодек: MPEG-4 AVC Аудио кодек: AAC
Видео: 1280x720 (16:9) at 23.976 fps, AVC at 3 153 kbps avg, 0.143 bit/pixel
Аудио №1 Rus: 48.0 KHz, AAC, 2 ch, 128.0 Kbps
Аудио №2 Eng: 48.0 KHz, AAC, 2 ch, 128.0 Kbps
Субтитры: русские (полные)
Навигация по главам: нет
Размер: 2.12 GiB
General
Complete name : ...Bugimen_2005_KinoGadget.mp4
Format : MPEG-4
Format profile : Base Media
Codec ID : isom (isom)
File size : 2.12 GiB
Duration : 1 h 28 min
Overall bit rate mode : Variable
Overall bit rate : 3 420 kb/s
Season : 0
Movie name : Бугимен
Part : 0
Performer : Стефен Т. Кэй
Director : Стефен Т. Кэй
Actor : Бэрри Уотсон / Эмили Дешанель / Скайе МакКоул Бартусяк / Тори Массет / Эндрю Гловер / Люси Лоулесс / Чарльз Межер / Филип Гордон / Аарон Мерфи / Дженнифер Ракер
Screenplay by : Эрик Крипке / Джульетт Сноуден / Стайлз Уайт
Producer : Сэм Рэйми / Роб Таперт / Гари Бриман
Genre : Drama, Horror, Mystery
ContentType : Short Film
Recorded date : 2005
Encoded date : UTC 2017-01-05 15:48:03
Tagged date : UTC 2017-01-05 16:09:27
Cover : Yes
Xtra : WM/ParentalRating
ContentRating : mpaa|PG-13|300|
LongDeion : Бугимэн — мифическое, мистическое существо. В преданиях каждого народа есть такой монстр, живущий в детских ночных кошмарах. Тиму уже 20 лет, но Бугимэн до сих пор живет в его памяти, как жуткое существо, поглотившее его отца 16 лет тому назад. Реален ли Бугимэн? / / И если нет, как тогда объяснить исчезновение отца Тима? Ответ скрыт в каждом темном углу, за каждой полузакрытой дверью в доме его детства — там, куда Тиму придется вернуться и узнать, наконец, ответ на леденящий душу вопрос — существует ли Бугимэн на самом деле?
HDVideo : Yes
AppleStoreCatalogID : 0
Video
ID : 1
Format : AVC
Format/Info : Advanced Video Codec
Format profile : [email protected]
Format settings, CABAC : Yes
Format settings, ReFrames : 9 frames
Codec ID : avc1
Codec ID/Info : Advanced Video Coding
Duration : 1 h 28 min
Bit rate : 3 153 kb/s
Maximum bit rate : 16.6 Mb/s
Width : 1 280 pixels
Height : 720 pixels
Display aspect ratio : 16:9
Frame rate mode : Constant
Frame rate : 23.976 (24000/1001) FPS
Color space : YUV
Chroma subsampling : 4:2:0
Bit depth : 8 bits
Scan type : Progressive
Bits/(Pixel*Frame) : 0.143
Stream size : 1.96 GiB (92%)
Writing library : x264 core 148 r2638 7599210
Encoding settings : cabac=1 / ref=9 / deblock=1:-2:-1 / analyse=0x3:0x113 / me=umh / subme=7 / psy=1 / psy_rd=1.00:0.15 / mixed_ref=1 / me_range=32 / chroma_me=1 / trellis=1 / 8x8dct=1 / cqm=0 / deadzone=21,11 / fast_pskip=1 / chroma_qp_offset=-3 / threads=3 / lookahead_threads=1 / sliced_threads=0 / nr=0 / decimate=1 / interlaced=0 / bluray_compat=0 / constrained_intra=0 / bframes=4 / b_pyramid=2 / b_adapt=1 / b_bias=0 / direct=1 / weightb=1 / open_gop=0 / weightp=2 / keyint=240 / keyint_min=23 / scenecut=40 / intra_refresh=0 / rc_lookahead=40 / rc=crf / mbtree=1 / crf=20.0 / qcomp=0.60 / qpmin=0 / qpmax=69 / qpstep=4 / vbv_maxrate=62500 / vbv_bufsize=78125 / crf_max=0.0 / nal_hrd=none / filler=0 / ip_ratio=1.40 / aq=1:1.00
Language : English
Encoded date : UTC 2017-01-04 05:36:54
Tagged date : UTC 2017-01-05 15:48:39
Menus : 5
Audio #1
ID : 2
Format : AAC
Format/Info : Advanced Audio Codec
Format profile : LC
Codec ID : 40
Duration : 1 h 28 min
Bit rate mode : Variable
Bit rate : 128 kb/s
Maximum bit rate : 134 kb/s
Channel(s) : 2 channels
Channel positions : Front: L R
Sampling rate : 48.0 kHz
Frame rate : 46.875 FPS (1024 spf)
Compression mode : Lossy
Stream size : 81.3 MiB (4%)
Title : Dub
Language : Russian
Encoded date : UTC 2017-01-05 15:41:00
Tagged date : UTC 2017-01-05 15:48:39
Audio #2
ID : 3
Format : AAC
Format/Info : Advanced Audio Codec
Format profile : LC
Codec ID : 40
Duration : 1 h 28 min
Bit rate mode : Variable
Bit rate : 128 kb/s
Maximum bit rate : 135 kb/s
Channel(s) : 2 channels
Channel positions : Front: L R
Sampling rate : 48.0 kHz
Frame rate : 46.875 FPS (1024 spf)
Compression mode : Lossy
Stream size : 81.4 MiB (4%)
Encoded date : UTC 2017-01-05 15:32:23
Tagged date : UTC 2017-01-05 15:48:39
Text
ID : 4
Format : Timed Text
Codec ID : tx3g
Duration : 1 h 28 min
Bit rate mode : Variable
Bit rate : 48 b/s
Stream size : 31.0 KiB (0%)
Language : English
Forced : No
Encoded date : UTC 2017-01-05 15:48:39
Tagged date : UTC 2017-01-05 15:48:39




_________________
Проголосуй за трекер Открытый торрент трекер - RUS-MEDIA.ORG

Проголосуй Открытый торрент трекер - RUS-MEDIA.ORG


Вернуться к началу
 Профиль Отправить личное сообщение  
 
   Похожие торренты   Автор   Торрент   Размер 
В этой теме нет новых непрочитанных сообщений. Бугимен 2 / Boogeyman 2 [ужасы, триллер, драма, 2007] BDRip 720p, Dub [iPad]

salma3

0 | 0

1.67 ГБ

В этой теме нет новых непрочитанных сообщений. Бугимен / Boogeyman [ужасы, триллер, драма, детектив, 2005] BDRip-AVC, Dub

salma3

44 | 5

741.62 МБ

В этой теме нет новых непрочитанных сообщений. Бугимен / Boogeyman [ужасы, триллер, драма, детектив, 2005] BDRip 1080р, Dub

salma3

19 | 4

8.9 ГБ

В этой теме нет новых непрочитанных сообщений. Бугимен 2 / Boogeyman 2 [ужасы, триллер, драма, 2007] BDRip-AVC, Dub

salma3

56 | 23

744.59 МБ

В этой теме нет новых непрочитанных сообщений. Бугимен 2 / Boogeyman 2 [ужасы, триллер, драма, 2007] BDRip 1080p, Dub

salma3

46 | 68

8.25 ГБ

В этой теме нет новых непрочитанных сообщений. Бугимен / The Boogeyman [ужасы, 1980] BDRemux 1080р, Dvo

salma3

0 | 0

15.46 ГБ

В этой теме нет новых непрочитанных сообщений. Избави нас от лукавого / Deliver Us from Evil [ужасы, триллер, детектив, 2014] BDRip 720p, Dub [iPad]

salma3

0 | 0

1.83 ГБ


Начать новую тему Ответить на тему  [ 1 сообщение ] 




Для Мосгорсуда, Роскомнадзора и рекламодателей:: mosgorsud-torrent[собачка]yandex.ru
cron