Торрент файл
скачать торрент магнет ссылка Добавлен: 09 апр 2017, 12:00
Размер: 2.57 ГБ
Сидеров: 0
Личеров: 0
Автор

СообщениеДобавлено: 09 апр 2017, 12:00 

Не в сети
Супермодератор
Аватара пользователя
Дата регистрации:
15 фев 2012, 16:44
Возраст: 28
Спасибо: 7290 / 2147
Сообщения: 70552
Страна: США
Жанр: ужасы
Возраст: 18+
Режиссер: Джо Линч
В ролях: Эрика Лирсен, Генри Роллинз, Тексас Бэттл, Алекса Палладино, Даниэлла Алонсо, Стив Браун, Мэттью Карри Холмс, Кристал Лоу, Кимберли Колдуэлл, Вейн Робсон
Описание: В печально известном по событиям первого фильма лесу, местная телекомпания снимает реалити-шоу в духе «Последнего героя». Участникам проекта предстоит вести образ жизни первобытных племен без современных средств связи… на радость обитающим неподалеку каннибалам.

Продолжительность: 01:36:57
Перевод: Дублированный
Оригинальная дорожка: есть
Автор рипа:
Качество видео: BDRip 720p Исходник: BDRip (1080p) Формат: mp4
Видео кодек: MPEG-4 AVC Аудио кодек: AAC
Видео: 1280x720 (16:9) at 23.976 fps, AVC at 3 525 kbps avg, 0.160 bit/pixel
Аудио №1 Rus: 48.0 KHz, AAC, 2 ch, 128.0 Kbps
Аудио №2 Eng: 48.0 KHz, AAC, 2 ch, 128.0 Kbps
Субтитры: нет
Навигация по главам: нет
Размер: 2.57 GiB
avs [info]: 1280x720p 1:1 @ 24000/1001 fps (cfr)
x264 [info]: using SAR=1/1
x264 [info]: using cpu capabilities: MMX2 SSE2Fast SSSE3 Cache64
x264 [info]: profile High, level 4.1
x264 [info]: frame I:1246 Avg QP:20.11 size: 95614
x264 [info]: frame P:41896 Avg QP:23.28 size: 29742
x264 [info]: frame B:96333 Avg QP:24.92 size: 12435
x264 [info]: consecutive B-frames: 3.1% 7.0% 21.8% 68.0%
x264 [info]: mb I I16..4: 4.1% 84.8% 11.2%
x264 [info]: mb P I16..4: 1.7% 16.4% 1.0% P16..4: 41.3% 18.6% 8.6% 0.0% 0.0% skip:12.5%
x264 [info]: mb B I16..4: 0.2% 1.8% 0.1% B16..8: 42.8% 8.5% 1.5% direct: 7.3% skip:37.8% L0:42.3% L1:50.0% BI: 7.7%
x264 [info]: 8x8 transform intra:85.6% inter:78.6%
x264 [info]: coded y,uvDC,uvAC intra: 74.1% 71.8% 27.6% inter: 29.1% 27.5% 0.7%
x264 [info]: i16 v,h,dc,p: 20% 18% 5% 57%
x264 [info]: i8 v,h,dc,ddl,ddr,vr,hd,vl,hu: 15% 14% 20% 6% 9% 9% 9% 8% 9%
x264 [info]: i4 v,h,dc,ddl,ddr,vr,hd,vl,hu: 18% 16% 11% 7% 12% 11% 11% 8% 7%
x264 [info]: i8c dc,h,v,p: 60% 18% 17% 5%
x264 [info]: Weighted P-Frames: Y:3.2% UV:1.6%
x264 [info]: ref P L0: 45.0% 12.9% 20.2% 5.7% 5.3% 3.3% 3.3% 1.7% 2.0% 0.6% 0.0%
x264 [info]: ref B L0: 78.6% 10.6% 4.4% 2.3% 1.6% 1.4% 0.9% 0.4%
x264 [info]: ref B L1: 95.4% 4.6%
x264 [info]: kb/s:3524.86
encoded 139475 frames, 1.83 fps, 3524.86 kb/s

General
Format : MPEG-4
Format profile : Base Media
Codec ID : isom (isom)
File size : 2.57 GiB
Duration : 1 h 36 min
Overall bit rate mode : Variable
Overall bit rate : 3 793 kb/s
Movie name : Поворот не туда 2: Тупик
Performer : Джо Линч
Director : Джо Линч
Actor : Эрика Лирсен / Генри Роллинз / Тексас Бэттл / Алекса Палладино / Даниэлла Алонсо / Стив Браун / Мэттью Карри Холмс / Кристал Лоу / Кимберли Колдуэлл / Вейн Робсон
Screenplay by : Тури Мейер / Аль Септейн / Алан Б. МакЭлрой
Producer : Джефф Фрейлих / Эрик Фейг / Роберт Кульцер
Genre : Horror
ContentType : Short Film
Recorded date : 2007
Encoded date : UTC 2017-01-12 08:38:16
Tagged date : UTC 2017-01-12 09:32:11
Cover : Yes
ContentRating : mpaa|R|400|
LongDeion : В печально известном по событиям первого фильма лесу, местная телекомпания снимает реалити-шоу в духе «Последнего героя». Участникам проекта предстоит вести образ жизни первобытных племен без современных средств связи… на радость обитающим неподалеку каннибалам.
HDVideo : Yes
Video
ID : 1
Format : AVC
Format/Info : Advanced Video Codec
Format profile : [email protected]
Format settings, CABAC : Yes
Format settings, ReFrames : 9 frames
Codec ID : avc1
Codec ID/Info : Advanced Video Coding
Duration : 1 h 36 min
Bit rate : 3 525 kb/s
Maximum bit rate : 16.8 Mb/s
Width : 1 280 pixels
Height : 720 pixels
Display aspect ratio : 16:9
Frame rate mode : Constant
Frame rate : 23.976 (24000/1001) FPS
Color space : YUV
Chroma subsampling : 4:2:0
Bit depth : 8 bits
Scan type : Progressive
Bits/(Pixel*Frame) : 0.160
Stream size : 2.39 GiB (93%)
Writing library : x264 core 148 r2638 7599210
Encoding settings : cabac=1 / ref=9 / deblock=1:-2:-1 / analyse=0x3:0x113 / me=umh / subme=7 / psy=1 / psy_rd=1.00:0.15 / mixed_ref=1 / me_range=32 / chroma_me=1 / trellis=2 / 8x8dct=1 / cqm=0 / deadzone=21,11 / fast_pskip=1 / chroma_qp_offset=-3 / threads=3 / lookahead_threads=1 / sliced_threads=0 / nr=0 / decimate=1 / interlaced=0 / bluray_compat=0 / constrained_intra=0 / bframes=3 / b_pyramid=2 / b_adapt=2 / b_bias=0 / direct=1 / weightb=1 / open_gop=0 / weightp=2 / keyint=240 / keyint_min=23 / scenecut=40 / intra_refresh=0 / rc_lookahead=40 / rc=crf / mbtree=1 / crf=22.0 / qcomp=0.60 / qpmin=0 / qpmax=69 / qpstep=4 / vbv_maxrate=62500 / vbv_bufsize=78125 / crf_max=0.0 / nal_hrd=none / filler=0 / ip_ratio=1.40 / aq=1:1.00
Encoded date : UTC 2017-01-12 08:05:59
Tagged date : UTC 2017-01-12 08:39:01
Audio #1
ID : 2
Format : AAC
Format/Info : Advanced Audio Codec
Format profile : LC
Codec ID : 40
Duration : 1 h 36 min
Bit rate mode : Variable
Bit rate : 128 kb/s
Maximum bit rate : 135 kb/s
Channel(s) : 2 channels
Channel positions : Front: L R
Sampling rate : 48.0 kHz
Frame rate : 46.875 FPS (1024 spf)
Compression mode : Lossy
Stream size : 88.8 MiB (3%)
Title : Dub
Language : Russian
Encoded date : UTC 2017-01-12 08:11:00
Tagged date : UTC 2017-01-12 08:39:01
Audio #2
ID : 3
Format : AAC
Format/Info : Advanced Audio Codec
Format profile : LC
Codec ID : 40
Duration : 1 h 36 min
Bit rate mode : Variable
Bit rate : 128 kb/s
Maximum bit rate : 135 kb/s
Channel(s) : 2 channels
Channel positions : Front: L R
Sampling rate : 48.0 kHz
Frame rate : 46.875 FPS (1024 spf)
Compression mode : Lossy
Stream size : 88.8 MiB (3%)
Language : English
Encoded date : UTC 2017-01-12 08:20:11
Tagged date : UTC 2017-01-12 08:39:01




_________________
Проголосуй за трекер Открытый торрент трекер - RUS-MEDIA.ORG

Проголосуй Открытый торрент трекер - RUS-MEDIA.ORG


Вернуться к началу
 Профиль Отправить личное сообщение  
 
   Похожие торренты   Автор   Торрент   Размер 
В этой теме нет новых непрочитанных сообщений. Поворот не туда 2: Тупик / Wrong Turn 2: Dead End [ужасы, 2007] BDRip-AVC, Dub

salma3

74 | 25

744.32 МБ

В этой теме нет новых непрочитанных сообщений. Поворот не туда / Wrong Turn [ужасы, 2003] BDRip 720p, Dub [iPad]

salma3

0 | 0

1.93 ГБ

В этой теме нет новых непрочитанных сообщений. Поворот не туда 6 / Wrong Turn 6: Last Resort [ужасы, 2014] BDRip 720p, Mvo [iPad] [Unrated]

salma3

0 | 0

2.06 ГБ

В этой теме нет новых непрочитанных сообщений. Поворот не туда 5: Кровное родство / Wrong Turn 5: Bloodlines [ужасы, 2012] BDRip 720p, Dub [iPad] [Лицензия]

salma3

7 | 1

1.78 ГБ

В этой теме нет новых непрочитанных сообщений. Поворот не туда 4: Кровавое начало / Wrong Turn 4: Bloody Beginnings [ужасы, 2011] BDRip 720p, Dub [iPad] [Лицензия]

salma3

12 | 4

2.01 ГБ

В этой теме нет новых непрочитанных сообщений. Поворот не туда 3 / Wrong Turn 3: Left for Dead [ужасы, 2009] BDRip-AVC, Mvo

salma3

69 | 31

742.84 МБ

В этой теме нет новых непрочитанных сообщений. Поворот не туда / Wrong Turn [ужасы, 2003] BDRip-AVC, Dub

salma3

99 | 23

744.01 МБ


Начать новую тему Ответить на тему  [ 1 сообщение ] 




Для Мосгорсуда, Роскомнадзора и рекламодателей:: mosgorsud-torrent[собачка]yandex.ru
cron