Торрент файл
скачать торрент магнет ссылка Добавлен: 07 апр 2017, 11:52
Размер: 1.78 ГБ
Сидеров: 7
Личеров: 1
Автор

СообщениеДобавлено: 07 апр 2017, 11:52 

Не в сети
Супермодератор
Аватара пользователя
Дата регистрации:
15 фев 2012, 16:44
Возраст: 28
Спасибо: 7290 / 2147
Сообщения: 70562
Страна: США
Жанр: ужасы
Возраст: 16+
Режиссер: Деклан О’Брайэн
В ролях: Даг Брэдли, Камилла Арфведсон, Саймон Джинти, Роксанна МакКи, Оливер Хоар, Кайл Редмонт-Джонс, Эми Леннокс, Дункан Уисби, Радослав Парванов, Джордж Карлуковский, Борислав Илиев, Питер Брук, Финн Джонс, Эндрю Боун, Рози Холден, Гарри Аничкин, Рени Джонсон, Велизар Пеев, Эмилиа Клэйн, Свилен Чолаков
Описание: Маленький городок в Западной Вирджинии проводит ежегодный фестиваль «Горный человек», посвящённый Хэллоуину. Туда направляется группа студентов колледжа, однако они не подозревают, что шумная костюмированная вечеринка с музыкой и выпивкой обернётся для них кровавым кошмаром — на фестиваль направляется семья горных каннибалов.
Продолжительность: 01:30:48
Перевод: Профессиональный многоголосый [Лицензия]
Оригинальная дорожка: есть
Автор рипа:
Качество видео: BDRip 720p Исходник: BDRip (1080p) Формат: mp4
Видео кодек: MPEG-4 AVC Аудио кодек: AAC
Видео: 1280x720 (16:9) at 23.976 fps, AVC at 2 533 kbps avg, 0.115 bit/pixel
Аудио №1 Rus: 48.0 KHz, AAC, 2 ch, 128.0 Kbps
Аудио №2 Eng: 48.0 KHz, AAC, 2 ch, 128.0 Kbps
Субтитры: русские (полные), английские (полные)
Навигация по главам: есть
Размер: 1.78 GiB
avs [info]: 1280x720p 1:1 @ 24000/1001 fps (cfr)
x264 [info]: using SAR=1/1
x264 [info]: using cpu capabilities: MMX2 SSE2Fast SSSE3 Cache64
x264 [info]: profile High, level 4.1
x264 [info]: frame I:1123 Avg QP:13.57 size:107758
x264 [info]: frame P:30890 Avg QP:16.88 size: 27782
x264 [info]: frame B:98621 Avg QP:18.23 size: 7566
x264 [info]: consecutive B-frames: 2.0% 2.5% 6.5% 46.7% 13.3% 25.1% 3.9%
x264 [info]: mb I I16..4: 8.6% 71.3% 20.1%
x264 [info]: mb P I16..4: 2.8% 11.2% 1.5% P16..4: 40.9% 19.3% 11.3% 0.0% 0.0% skip:12.9%
x264 [info]: mb B I16..4: 0.3% 0.9% 0.1% B16..8: 38.6% 6.0% 1.1% direct: 5.0% skip:47.9% L0:42.1% L1:48.7% BI: 9.2%
x264 [info]: 8x8 transform intra:71.7% inter:63.4%
x264 [info]: coded y,uvDC,uvAC intra: 67.5% 74.6% 42.9% inter: 14.0% 20.0% 1.6%
x264 [info]: i16 v,h,dc,p: 37% 16% 7% 40%
x264 [info]: i8 v,h,dc,ddl,ddr,vr,hd,vl,hu: 20% 16% 22% 5% 7% 8% 7% 7% 7%
x264 [info]: i4 v,h,dc,ddl,ddr,vr,hd,vl,hu: 25% 17% 16% 6% 9% 9% 8% 6% 5%
x264 [info]: i8c dc,h,v,p: 52% 18% 22% 7%
x264 [info]: Weighted P-Frames: Y:4.3% UV:2.5%
x264 [info]: ref P L0: 50.3% 8.7% 17.5% 6.7% 5.2% 3.9% 3.4% 2.0% 2.0% 0.3% 0.0%
x264 [info]: ref B L0: 78.2% 10.3% 5.0% 2.5% 1.6% 1.3% 0.8% 0.3%
x264 [info]: ref B L1: 93.8% 6.2%
x264 [info]: kb/s:2533.32
encoded 130634 frames, 2.38 fps, 2533.32 kb/s

General
Format : MPEG-4
Format profile : Base Media
Codec ID : isom (isom)
File size : 1.78 GiB
Duration : 1 h 30 min
Overall bit rate mode : Variable
Overall bit rate : 2 801 kb/s
Movie name : Поворот не туда 5: Кровное родство | KinoGadget
Performer : Деклан О’Брайэн
Director : Деклан О’Брайэн
Actor : Даг Брэдли / Камилла Арфведсон / Саймон Джинти / Роксанна МакКи / Оливер Хоар / Кайл Редмонт-Джонс / Эми Леннокс / Дункан Уисби / Радослав Парванов / Джордж Карлуковский / Борислав Илиев / Питер Брук / Финн Джонс / Эндрю Боун / Рози Холден / Гарри Аничкин / Рени Джонсон / Велизар Пеев / Эмилиа Клэйн / Свилен Чолаков
Screenplay by : Деклан О’Брайэн / Алан Б. МакЭлрой
Producer : Джеффри Бич / Филлип Дж. Рот / Джон Каппилла
Genre : Horror
ContentType : Short Film
Recorded date : 2012
Encoded date : UTC 2017-01-25 07:30:21
Tagged date : UTC 2017-01-26 07:50:53
Cover : Yes
ContentRating : mpaa|R|400|
LongDeion : Маленький городок в Западной Вирджинии проводит ежегодный фестиваль «Горный человек», посвящённый Хэллоуину. Туда направляется группа студентов колледжа, однако они не подозревают, что шумная костюмированная вечеринка с музыкой и выпивкой обернётся для них кровавым кошмаром — на фестиваль направляется семья горных каннибалов.
HDVideo : Yes
Video
ID : 1
Format : AVC
Format/Info : Advanced Video Codec
Format profile : [email protected]
Format settings, CABAC : Yes
Format settings, ReFrames : 9 frames
Codec ID : avc1
Codec ID/Info : Advanced Video Coding
Duration : 1 h 30 min
Bit rate : 2 533 kb/s
Maximum bit rate : 25.4 Mb/s
Width : 1 280 pixels
Height : 720 pixels
Display aspect ratio : 16:9
Frame rate mode : Constant
Frame rate : 23.976 (24000/1001) FPS
Color space : YUV
Chroma subsampling : 4:2:0
Bit depth : 8 bits
Scan type : Progressive
Bits/(Pixel*Frame) : 0.115
Stream size : 1.61 GiB (90%)
Writing library : x264 core 148 r2638 7599210
Encoding settings : cabac=1 / ref=9 / deblock=1:-1:-1 / analyse=0x3:0x113 / me=umh / subme=7 / psy=1 / psy_rd=1.00:0.15 / mixed_ref=1 / me_range=32 / chroma_me=1 / trellis=2 / 8x8dct=1 / cqm=0 / deadzone=21,11 / fast_pskip=1 / chroma_qp_offset=-3 / threads=3 / lookahead_threads=1 / sliced_threads=0 / nr=0 / decimate=1 / interlaced=0 / bluray_compat=0 / constrained_intra=0 / bframes=6 / b_pyramid=2 / b_adapt=2 / b_bias=0 / direct=1 / weightb=1 / open_gop=0 / weightp=2 / keyint=240 / keyint_min=23 / scenecut=40 / intra_refresh=0 / rc_lookahead=40 / rc=crf / mbtree=1 / crf=18.0 / qcomp=0.60 / qpmin=0 / qpmax=69 / qpstep=4 / vbv_maxrate=62500 / vbv_bufsize=78125 / crf_max=0.0 / nal_hrd=none / filler=0 / ip_ratio=1.40 / aq=1:1.00
Encoded date : UTC 2017-01-25 01:30:34
Tagged date : UTC 2017-01-25 07:30:57
Audio #1
ID : 2
Format : AAC
Format/Info : Advanced Audio Codec
Format profile : LC
Codec ID : 40
Duration : 1 h 30 min
Bit rate mode : Variable
Bit rate : 129 kb/s
Channel(s) : 1 channel
Channel positions : Front: C
Sampling rate : 48.0 kHz
Frame rate : 46.875 FPS (1024 spf)
Compression mode : Lossy
Stream size : 83.1 MiB (5%)
Title : P
Language : Russian
Encoded date : UTC 2017-01-25 01:32:46
Tagged date : UTC 2017-01-25 07:30:57
Audio #2
ID : 3
Format : AAC
Format/Info : Advanced Audio Codec
Format profile : LC
Codec ID : 40
Duration : 1 h 30 min
Bit rate mode : Variable
Bit rate : 129 kb/s
Channel(s) : 1 channel
Channel positions : Front: C
Sampling rate : 48.0 kHz
Frame rate : 46.875 FPS (1024 spf)
Compression mode : Lossy
Stream size : 83.1 MiB (5%)
Language : English
Encoded date : UTC 2017-01-25 01:37:36
Tagged date : UTC 2017-01-25 07:30:57
Text #1
ID : 4
Format : Timed Text
Codec ID : tx3g
Duration : 1 h 30 min
Bit rate mode : Variable
Bit rate : 75 b/s
Stream size : 49.8 KiB (0%)
Title : Full
Language : Russian
Forced : No
Encoded date : UTC 2017-01-25 07:30:57
Tagged date : UTC 2017-01-25 07:30:57
Text #2
ID : 5
Format : Timed Text
Codec ID : tx3g
Duration : 1 h 30 min
Bit rate mode : Variable
Bit rate : 58 b/s
Stream size : 38.4 KiB (0%)
Title : Full
Language : English
Forced : No
Encoded date : UTC 2017-01-25 07:30:57
Tagged date : UTC 2017-01-25 07:30:57
Menu
00:00:00.000 : Chapter 1
00:03:35.006 : Chapter 2
00:06:41.109 : Chapter 3
00:09:45.293 : Chapter 4
00:13:38.526 : Chapter 5
00:16:56.474 : Chapter 6
00:18:38.909 : Chapter 7
00:22:32.893 : Chapter 8
00:26:03.437 : Chapter 9
00:29:27.224 : Chapter 10
00:34:49.838 : Chapter 11
00:39:19.440 : Chapter 12
00:44:08.646 : Chapter 13
00:48:06.217 : Chapter 14
00:53:11.814 : Chapter 15
00:59:35.197 : Chapter 16
01:03:13.123 : Chapter 17
01:06:56.304 : Chapter 18
01:09:44.639 : Chapter 19
01:12:32.640 : Chapter 20
01:17:43.701 : Chapter 21
01:19:31.767 : Chapter 22
01:20:46.842 : Chapter 23
01:26:21.802 : Chapter 24




_________________
Проголосуй за трекер Открытый торрент трекер - RUS-MEDIA.ORG

Проголосуй Открытый торрент трекер - RUS-MEDIA.ORG


Вернуться к началу
 Профиль Отправить личное сообщение  
 
   Похожие торренты   Автор   Торрент   Размер 
В этой теме нет новых непрочитанных сообщений. Поворот не туда 5: Кровное родство / Wrong Turn 5: Bloodlines [ужасы, 2012] BDRip-AVC, Mvo

salma3

96 | 43

738.93 МБ

В этой теме нет новых непрочитанных сообщений. Поворот не туда 4: Кровавое начало / Wrong Turn 4: Bloody Beginnings [ужасы, 2011] BDRip 720p, Dub [iPad] [Лицензия]

salma3

12 | 4

2.01 ГБ

В этой теме нет новых непрочитанных сообщений. Поворот не туда / Wrong Turn [ужасы, 2003] BDRip 720p, Dub [iPad]

salma3

0 | 0

1.93 ГБ

В этой теме нет новых непрочитанных сообщений. Поворот не туда 6 / Wrong Turn 6: Last Resort [ужасы, 2014] BDRip 720p, Mvo [iPad] [Unrated]

salma3

0 | 0

2.06 ГБ

В этой теме нет новых непрочитанных сообщений. Поворот не туда 2: Тупик / Wrong Turn 2: Dead End [ужасы, 2007] BDRip 720p, Dub [iPad]

salma3

0 | 0

2.57 ГБ

В этой теме нет новых непрочитанных сообщений. Дрожь земли 5: Кровное родство / Tremors 5: Bloodlines (Дон Майкл Пол) [ужасы, фантастика, боевик, 2015] BDRip, Dub [лицензия]

salma3

698 | 34

1.46 ГБ

В этой теме нет новых непрочитанных сообщений. Дрожь земли 5: Кровное родство / Tremors 5: Bloodlines [Ужасы, фантастика, боевик, вестерн, 2015] BDRip-AVC, Dub [Лицензия]

salma3

59 | 8

3.24 ГБ


Начать новую тему Ответить на тему  [ 1 сообщение ] 




Для Мосгорсуда, Роскомнадзора и рекламодателей:: mosgorsud-torrent[собачка]yandex.ru
cron