Торрент файл
скачать торрент магнет ссылка Добавлен: 07 апр 2017, 11:50
Размер: 2.01 ГБ
Сидеров: 12
Личеров: 4
Автор

СообщениеДобавлено: 07 апр 2017, 11:50 

Не в сети
Супермодератор
Аватара пользователя
Дата регистрации:
15 фев 2012, 16:44
Возраст: 28
Спасибо: 7205 / 2147
Сообщения: 65433
Страна: США, Германия
Жанр: ужасы
Возраст: 18+
Режиссер: Деклан О’Брайэн
В ролях: Дин Армстронг, Блейн Кипурда, Теника Дэвис, Дэйв Хармс, Кристен Харрис, Скотт Джонсон, Саманта Кендрик, Арни Макферсон, Дженнифер Пудавик, Дэн Скин
Описание: Группа друзей отправляется на снегоходах на зимнюю прогулку. Во время метели они заблудились и свернули не туда. Встреча с мутантами-каннибалами стала для героев большой неожиданностью…
Продолжительность: 01:33:20
Перевод: Профессиональный многоголосый [Лицензия]
Оригинальная дорожка: есть
Автор рипа:
Качество видео: BDRip 720p Исходник: BDRip (720p) Формат: mp4
Видео кодек: MPEG-4 AVC Аудио кодек: AAC
Видео: 1280x720 (16:9) at 23.976 fps, AVC at 2 822 kbps avg, 0.128 bit/pixel
Аудио №1 Rus: 48.0 KHz, AAC, 2 ch, 128.0 Kbps
Аудио №2 Eng: 48.0 KHz, AAC, 2 ch, 128.0 Kbps
Субтитры: русские (полные), английские (полные)
Навигация по главам: нет
Размер: 2.01 GiB
avs [info]: 1280x720p 1:1 @ 24000/1001 fps (cfr)
x264 [info]: using SAR=1/1
x264 [info]: using cpu capabilities: MMX2 SSE2Fast SSSE3 Cache64
x264 [info]: profile High, level 4.1
x264 [info]: frame I:963 Avg QP:14.50 size: 83482
x264 [info]: frame P:32201 Avg QP:18.19 size: 25798
x264 [info]: frame B:101115 Avg QP:19.93 size: 10525
x264 [info]: consecutive B-frames: 2.2% 3.6% 10.5% 36.9% 12.5% 29.3% 1.1% 1.9% 2.0%
x264 [info]: mb I I16..4: 9.4% 74.7% 15.9%
x264 [info]: mb P I16..4: 3.0% 17.1% 1.3% P16..4: 44.5% 16.0% 7.7% 0.0% 0.0% skip:10.5%
x264 [info]: mb B I16..4: 0.3% 2.0% 0.2% B16..8: 42.3% 8.2% 1.4% direct: 6.1% skip:39.6% L0:45.2% L1:47.8% BI: 7.0%
x264 [info]: 8x8 transform intra:79.9% inter:74.5%
x264 [info]: coded y,uvDC,uvAC intra: 71.7% 66.8% 27.1% inter: 19.4% 19.1% 0.4%
x264 [info]: i16 v,h,dc,p: 32% 14% 9% 45%
x264 [info]: i8 v,h,dc,ddl,ddr,vr,hd,vl,hu: 17% 14% 25% 5% 8% 8% 8% 7% 8%
x264 [info]: i4 v,h,dc,ddl,ddr,vr,hd,vl,hu: 21% 14% 15% 7% 12% 10% 9% 7% 6%
x264 [info]: i8c dc,h,v,p: 56% 17% 21% 6%
x264 [info]: Weighted P-Frames: Y:3.2% UV:1.7%
x264 [info]: ref P L0: 50.4% 8.4% 16.6% 7.3% 5.2% 4.3% 3.4% 2.3% 1.7% 0.3% 0.0%
x264 [info]: ref B L0: 75.7% 11.0% 5.5% 2.8% 2.1% 1.6% 1.0% 0.3%
x264 [info]: ref B L1: 94.0% 6.0%
x264 [info]: kb/s:2821.57
encoded 134279 frames, 1.97 fps, 2821.57 kb/s

General
Format : MPEG-4
Format profile : Base Media
Codec ID : isom (isom)
File size : 2.01 GiB
Duration : 1 h 33 min
Overall bit rate mode : Variable
Overall bit rate : 3 090 kb/s
Movie name : Поворот не туда 4: Кровавое начало | KinoGadget
Performer : Деклан О’Брайэн
Director : Деклан О’Брайэн
Actor : Дин Армстронг / Блейн Кипурда / Теника Дэвис / Дэйв Хармс / Кристен Харрис / Скотт Джонсон / Саманта Кендрик / Арни Макферсон / Дженнифер Пудавик / Дэн Скин
Screenplay by : Деклан О’Брайэн / Алан Б. МакЭлрой
Producer : Ким Тодд / Эрик Фейг / Роберт Кульцер
Genre : Horror
ContentType : Short Film
Recorded date : 2011
Encoded date : UTC 2017-01-23 08:27:50
Tagged date : UTC 2017-01-23 08:39:38
Cover : Yes
ContentRating : mpaa|R|400|
LongDeion : Группа друзей отправляется на снегоходах на зимнюю прогулку. Во время метели они заблудились и свернули не туда. Встреча с мутантами-каннибалами стала для героев большой неожиданностью…
HDVideo : Yes
Video
ID : 1
Format : AVC
Format/Info : Advanced Video Codec
Format profile : [email protected]
Format settings, CABAC : Yes
Format settings, ReFrames : 9 frames
Codec ID : avc1
Codec ID/Info : Advanced Video Coding
Duration : 1 h 33 min
Bit rate : 2 822 kb/s
Maximum bit rate : 19.8 Mb/s
Width : 1 280 pixels
Height : 720 pixels
Display aspect ratio : 16:9
Frame rate mode : Constant
Frame rate : 23.976 (24000/1001) FPS
Color space : YUV
Chroma subsampling : 4:2:0
Bit depth : 8 bits
Scan type : Progressive
Bits/(Pixel*Frame) : 0.128
Stream size : 1.84 GiB (91%)
Writing library : x264 core 148 r2638 7599210
Encoding settings : cabac=1 / ref=9 / deblock=1:-1:-1 / analyse=0x3:0x113 / me=umh / subme=7 / psy=1 / psy_rd=1.00:0.15 / mixed_ref=1 / me_range=32 / chroma_me=1 / trellis=2 / 8x8dct=1 / cqm=0 / deadzone=21,11 / fast_pskip=1 / chroma_qp_offset=-3 / threads=3 / lookahead_threads=1 / sliced_threads=0 / nr=0 / decimate=1 / interlaced=0 / bluray_compat=0 / constrained_intra=0 / bframes=8 / b_pyramid=2 / b_adapt=2 / b_bias=0 / direct=1 / weightb=1 / open_gop=0 / weightp=2 / keyint=240 / keyint_min=23 / scenecut=40 / intra_refresh=0 / rc_lookahead=40 / rc=crf / mbtree=1 / crf=19.0 / qcomp=0.60 / qpmin=0 / qpmax=69 / qpstep=4 / vbv_maxrate=62500 / vbv_bufsize=78125 / crf_max=0.0 / nal_hrd=none / filler=0 / ip_ratio=1.40 / aq=1:1.00
Encoded date : UTC 2017-01-23 06:00:52
Tagged date : UTC 2017-01-23 08:28:39
Audio #1
ID : 2
Format : AAC
Format/Info : Advanced Audio Codec
Format profile : LC
Codec ID : 40
Duration : 1 h 33 min
Bit rate mode : Variable
Bit rate : 128 kb/s
Maximum bit rate : 135 kb/s
Channel(s) : 2 channels
Channel positions : Front: L R
Sampling rate : 48.0 kHz
Frame rate : 46.875 FPS (1024 spf)
Compression mode : Lossy
Stream size : 85.5 MiB (4%)
Title : P
Language : Russian
Encoded date : UTC 2017-01-23 06:03:57
Tagged date : UTC 2017-01-23 08:28:39
Audio #2
ID : 3
Format : AAC
Format/Info : Advanced Audio Codec
Format profile : LC
Codec ID : 40
Duration : 1 h 33 min
Bit rate mode : Variable
Bit rate : 128 kb/s
Maximum bit rate : 135 kb/s
Channel(s) : 2 channels
Channel positions : Front: L R
Sampling rate : 48.0 kHz
Frame rate : 46.875 FPS (1024 spf)
Compression mode : Lossy
Stream size : 85.5 MiB (4%)
Language : English
Encoded date : UTC 2017-01-23 06:14:22
Tagged date : UTC 2017-01-23 08:28:39
Text #1
ID : 4
Format : Timed Text
Codec ID : tx3g
Duration : 1 h 33 min
Bit rate mode : Variable
Bit rate : 69 b/s
Stream size : 46.9 KiB (0%)
Title : Full
Language : Russian
Forced : No
Encoded date : UTC 2017-01-23 08:28:38
Tagged date : UTC 2017-01-23 08:28:39
Text #2
ID : 5
Format : Timed Text
Codec ID : tx3g
Duration : 1 h 33 min
Bit rate mode : Variable
Bit rate : 51 b/s
Stream size : 34.8 KiB (0%)
Title : Full
Language : English
Forced : No
Encoded date : UTC 2017-01-23 08:28:38
Tagged date : UTC 2017-01-23 08:28:39




_________________
Проголосуй за трекер Открытый торрент трекер - RUS-MEDIA.ORG

Проголосуй Открытый торрент трекер - RUS-MEDIA.ORG


Вернуться к началу
 Профиль Отправить личное сообщение  
 
   Похожие торренты   Автор   Торрент   Размер 
В этой теме нет новых непрочитанных сообщений. Поворот не туда 4: Кровавое начало / Wrong Turn 4: Bloody Beginnings [ужасы, 2011] BDRip-AVC, Mvo

salma3

71 | 38

743.7 МБ

В этой теме нет новых непрочитанных сообщений. Поворот не туда 5: Кровное родство / Wrong Turn 5: Bloodlines [ужасы, 2012] BDRip 720p, Dub [iPad] [Лицензия]

salma3

7 | 1

1.78 ГБ

В этой теме нет новых непрочитанных сообщений. Поворот не туда / Wrong Turn [ужасы, 2003] BDRip 720p, Dub [iPad]

salma3

0 | 0

1.93 ГБ

В этой теме нет новых непрочитанных сообщений. Поворот не туда 6 / Wrong Turn 6: Last Resort [ужасы, 2014] BDRip 720p, Mvo [iPad] [Unrated]

salma3

0 | 0

2.06 ГБ

В этой теме нет новых непрочитанных сообщений. Поворот не туда 2: Тупик / Wrong Turn 2: Dead End [ужасы, 2007] BDRip 720p, Dub [iPad]

salma3

0 | 0

2.57 ГБ

В этой теме нет новых непрочитанных сообщений. Поворот не туда / Wrong Turn [ужасы, 2003] BDRip-AVC, Dub

salma3

99 | 23

744.01 МБ

В этой теме нет новых непрочитанных сообщений. Поворот не туда 6 / Wrong Turn 6: Last Resort [ужасы, 2014] BDRip-AVC, Mvo

salma3

33 | 20

742.62 МБ


Начать новую тему Ответить на тему  [ 1 сообщение ] 




Для Мосгорсуда, Роскомнадзора и рекламодателей:: mosgorsud-torrent[собачка]yandex.ru
cron