Торрент файл
скачать торрент магнет ссылка Добавлен: 07 апр 2017, 11:49
Размер: 2.91 ГБ
Сидеров: 146
Личеров: 28
Автор

СообщениеДобавлено: 07 апр 2017, 11:49 

В сети
Супермодератор
Аватара пользователя
Дата регистрации:
15 фев 2012, 16:44
Возраст: 28
Спасибо: 7290 / 2147
Сообщения: 70686
Страна: Венгрия, США
Жанр: боевик, триллер, драма
Возраст: 16+
Режиссер: Рон Ховард
В ролях: Том Хэнкс, Бен Фостер, Сидсе Бабетт Кнудсен, Фелисити Джонс, Ирфан Кхан, Омар Си, Ана Улару, Ката Сарбо, Ида Дарвиш, Вольфганг Штегеман
Описание: Профессор Роберт Лэнгдон приходит в сознание в одной из итальянских больниц, полностью потеряв память. Местный врач Сиенна Брукс пытается помочь Роберту не только восстановить воспоминания, но и остановить загадочных злоумышленников, которые намерены распространить смертоносный вирус. Разгадка таинственной истории связана с «Адом» (ит. Inferno) — первой частью «Божественной комедии» Данте.
Продолжительность: 02:01:35
Перевод: Дублированный [Лицензия]
Оригинальная дорожка: есть
Автор рипа:
Качество видео: BDRip 720p Исходник: Blu-Ray Remux (1080p) Формат: mp4
Видео кодек: MPEG-4 AVC Аудио кодек: AAC
Видео: 1280x692 (1.85:1) at 23.976 fps, AVC at 3 156 kbps avg, 0.149 bit/pixel
Аудио №1 Rus: 48.0 KHz, AAC, 2 ch, 128.0 Kbps
Аудио №2 Eng: 48.0 KHz, AAC, 2 ch, 128.0 Kbps
Субтитры: русские (форсированные, полные), украинские (форсированные, полные), английские (форсированные, полные)
Навигация по главам: есть
Размер: 2.91 GiB
avs [info]: 1280x692p 1:1 @ 24000/1001 fps (cfr)
x264 [info]: using SAR=1/1
x264 [info]: using cpu capabilities: MMX2 SSE2Fast SSSE3 Cache64
x264 [info]: profile High, level 4.1
x264 [info]: frame I:1932 Avg QP:17.05 size:112402
x264 [info]: frame P:40428 Avg QP:20.60 size: 29947
x264 [info]: frame B:132552 Avg QP:22.26 size: 10942
x264 [info]: consecutive B-frames: 2.8% 3.2% 7.8% 28.8% 18.1% 32.2% 7.0%
x264 [info]: mb I I16..4: 7.7% 76.5% 15.9%
x264 [info]: mb P I16..4: 2.8% 14.8% 1.6% P16..4: 40.5% 17.3% 10.2% 0.0% 0.0% skip:12.8%
x264 [info]: mb B I16..4: 0.2% 1.4% 0.2% B16..8: 45.9% 7.0% 1.3% direct: 5.3% skip:38.7% L0:44.7% L1:49.6% BI: 5.7%
x264 [info]: 8x8 transform intra:76.6% inter:73.0%
x264 [info]: coded y,uvDC,uvAC intra: 72.5% 73.3% 35.8% inter: 21.3% 24.6% 1.2%
x264 [info]: i16 v,h,dc,p: 32% 14% 7% 46%
x264 [info]: i8 v,h,dc,ddl,ddr,vr,hd,vl,hu: 19% 13% 26% 5% 7% 8% 7% 7% 7%
x264 [info]: i4 v,h,dc,ddl,ddr,vr,hd,vl,hu: 33% 14% 13% 6% 8% 8% 7% 6% 5%
x264 [info]: i8c dc,h,v,p: 51% 18% 21% 10%
x264 [info]: Weighted P-Frames: Y:3.4% UV:2.0%
x264 [info]: ref P L0: 50.3% 11.7% 16.9% 6.1% 4.8% 3.3% 2.9% 1.9% 1.8% 0.3% 0.0%
x264 [info]: ref B L0: 78.9% 10.3% 4.6% 2.3% 1.7% 1.3% 0.7% 0.3%
x264 [info]: ref B L1: 93.9% 6.1%
x264 [info]: kb/s:3156.27
encoded 174912 frames, 1.89 fps, 3156.27 kb/s

General
Format : MPEG-4
Format profile : Base Media
Codec ID : isom (isom)
File size : 2.91 GiB
Duration : 2 h 1 min
Overall bit rate mode : Variable
Overall bit rate : 3 424 kb/s
Movie name : Инферно | KinoGadget
Performer : Рон Ховард
Director : Рон Ховард
Actor : Том Хэнкс / Бен Фостер / Сидсе Бабетт Кнудсен / Фелисити Джонс / Ирфан Кхан / Омар Си / Ана Улару / Ката Сарбо / Ида Дарвиш / Вольфганг Штегеман
Screenplay by : Дэвид Кепп / Дэн Браун
Producer : Дэн Браун / Уильям М. Коннор / Анна Калп
Genre : Action, Adventure, Crime
ContentType : Short Film
Recorded date : 2016
Encoded date : UTC 2017-01-22 08:56:57
Tagged date : UTC 2017-01-22 09:03:34
Cover : Yes
ContentRating : mpaa|PG-13|300|
LongDeion : Профессор Роберт Лэнгдон приходит в сознание в одной из итальянских больниц, полностью потеряв память. Местный врач Сиенна Брукс пытается помочь Роберту не только восстановить воспоминания, но и остановить загадочных злоумышленников, которые намерены распространить смертоносный вирус. Разгадка таинственной истории связана с «Адом» (ит. Inferno) — первой частью «Божественной комедии» Данте.
HDVideo : Yes
Video
ID : 1
Format : AVC
Format/Info : Advanced Video Codec
Format profile : [email protected]
Format settings, CABAC : Yes
Format settings, ReFrames : 9 frames
Codec ID : avc1
Codec ID/Info : Advanced Video Coding
Duration : 2 h 1 min
Bit rate : 3 156 kb/s
Maximum bit rate : 16.7 Mb/s
Width : 1 280 pixels
Height : 692 pixels
Display aspect ratio : 1.85:1
Frame rate mode : Constant
Frame rate : 23.976 (24000/1001) FPS
Color space : YUV
Chroma subsampling : 4:2:0
Bit depth : 8 bits
Scan type : Progressive
Bits/(Pixel*Frame) : 0.149
Stream size : 2.68 GiB (92%)
Writing library : x264 core 148 r2638 7599210
Encoding settings : cabac=1 / ref=9 / deblock=1:-1:-1 / analyse=0x3:0x113 / me=umh / subme=7 / psy=1 / psy_rd=1.00:0.15 / mixed_ref=1 / me_range=32 / chroma_me=1 / trellis=2 / 8x8dct=1 / cqm=0 / deadzone=21,11 / fast_pskip=1 / chroma_qp_offset=-3 / threads=3 / lookahead_threads=1 / sliced_threads=0 / nr=0 / decimate=1 / interlaced=0 / bluray_compat=0 / constrained_intra=0 / bframes=6 / b_pyramid=2 / b_adapt=2 / b_bias=0 / direct=1 / weightb=1 / open_gop=0 / weightp=2 / keyint=240 / keyint_min=23 / scenecut=40 / intra_refresh=0 / rc_lookahead=40 / rc=crf / mbtree=1 / crf=20.0 / qcomp=0.60 / qpmin=0 / qpmax=69 / qpstep=4 / vbv_maxrate=62500 / vbv_bufsize=78125 / crf_max=0.0 / nal_hrd=none / filler=0 / ip_ratio=1.40 / aq=1:1.00
Encoded date : UTC 2017-01-21 22:44:53
Tagged date : UTC 2017-01-22 08:57:50
Audio #1
ID : 2
Format : AAC
Format/Info : Advanced Audio Codec
Format profile : LC
Codec ID : 40
Duration : 2 h 1 min
Bit rate mode : Variable
Bit rate : 128 kb/s
Maximum bit rate : 135 kb/s
Channel(s) : 2 channels
Channel positions : Front: L R
Sampling rate : 48.0 kHz
Frame rate : 46.875 FPS (1024 spf)
Compression mode : Lossy
Stream size : 111 MiB (4%)
Title : Dub [license]
Language : Russian
Encoded date : UTC 2017-01-22 08:24:12
Tagged date : UTC 2017-01-22 08:57:50
Audio #2
ID : 3
Format : AAC
Format/Info : Advanced Audio Codec
Format profile : LC
Codec ID : 40
Duration : 2 h 1 min
Bit rate mode : Variable
Bit rate : 128 kb/s
Maximum bit rate : 135 kb/s
Channel(s) : 2 channels
Channel positions : Front: L R
Sampling rate : 48.0 kHz
Frame rate : 46.875 FPS (1024 spf)
Compression mode : Lossy
Stream size : 111 MiB (4%)
Language : English
Encoded date : UTC 2017-01-22 08:40:24
Tagged date : UTC 2017-01-22 08:57:50
Text #1
ID : 4
Format : Timed Text
Codec ID : tx3g
Duration : 1 h 55 min
Bit rate mode : Variable
Bit rate : 3 b/s
Stream size : 2.78 KiB (0%)
Title : Forced
Language : Russian
Forced : No
Encoded date : UTC 2017-01-22 08:57:50
Tagged date : UTC 2017-01-22 08:57:50
Text #2
ID : 5
Format : Timed Text
Codec ID : tx3g
Duration : 1 h 56 min
Bit rate mode : Variable
Bit rate : 98 b/s
Stream size : 83.4 KiB (0%)
Title : Full
Language : Russian
Forced : No
Encoded date : UTC 2017-01-22 08:57:50
Tagged date : UTC 2017-01-22 08:57:50
Text #3
ID : 6
Format : Timed Text
Codec ID : tx3g
Duration : 2 h 1 min
Bit rate mode : Variable
Bit rate : 3 b/s
Stream size : 2.73 KiB (0%)
Title : Forced
Language : Ukrainian
Forced : No
Encoded date : UTC 2017-01-22 08:57:50
Tagged date : UTC 2017-01-22 08:57:50
Text #4
ID : 7
Format : Timed Text
Codec ID : tx3g
Duration : 1 h 56 min
Bit rate mode : Variable
Bit rate : 96 b/s
Stream size : 81.9 KiB (0%)
Title : Full
Language : Ukrainian
Forced : No
Encoded date : UTC 2017-01-22 08:57:50
Tagged date : UTC 2017-01-22 08:57:50
Text #5
ID : 8
Format : Timed Text
Codec ID : tx3g
Duration : 1 h 8 min
Bit rate mode : Variable
Bit rate : 2 b/s
Stream size : 1.16 KiB (0%)
Title : Forced
Language : English
Forced : No
Encoded date : UTC 2017-01-22 08:57:50
Tagged date : UTC 2017-01-22 08:57:50
Text #6
ID : 9
Format : Timed Text
Codec ID : tx3g
Duration : 1 h 56 min
Bit rate mode : Variable
Bit rate : 63 b/s
Stream size : 53.4 KiB (0%)
Title : Full
Language : English
Forced : No
Encoded date : UTC 2017-01-22 08:57:50
Tagged date : UTC 2017-01-22 08:57:50
Menu
00:00:00.000 : 00:00:00.000
00:04:13.545 : 00:04:13.545
00:12:32.919 : 00:12:32.919
00:23:43.005 : 00:23:43.005
00:36:03.161 : 00:36:03.161
00:51:11.652 : 00:51:11.652
00:59:16.595 : 00:59:16.595
01:01:42.908 : 01:01:42.908
01:07:42.517 : 01:07:42.517
01:13:25.234 : 01:13:25.234
01:20:02.256 : 01:20:02.256
01:24:37.364 : 01:24:37.364
01:31:25.271 : 01:31:25.271
01:35:42.111 : 01:35:42.111
01:40:51.128 : 01:40:51.128
01:52:27.908 : 01:52:27.908




_________________
Проголосуй за трекер Открытый торрент трекер - RUS-MEDIA.ORG

Проголосуй Открытый торрент трекер - RUS-MEDIA.ORG


Вернуться к началу
 Профиль Отправить личное сообщение  
 
   Похожие торренты   Автор   Торрент   Размер 
В этой теме нет новых непрочитанных сообщений. Инферно / Inferno [боевик, триллер, драма, 2016] BDRip, Dub [лицензия]

salma3

500 | 33

2.18 ГБ

В этой теме нет новых непрочитанных сообщений. Инферно / Inferno [боевик, триллер, драма, 2016] BDRip, Dub+Sub [лицензия]

salma3

249 | 29

1.47 ГБ

В этой теме нет новых непрочитанных сообщений. Инферно / Inferno [боевик, триллер, драма, криминал, 2016] WEB-DL 720p, Dub [iTunes ]

salma3

1471 | 493

4.31 ГБ

В этой теме нет новых непрочитанных сообщений. Инферно / Inferno (Боевик, триллер, драма, криминал, детектив, 2016) BDRip от MegaPeer | iTunes

marya111

277 | 43

1.47 ГБ

В этой теме нет новых непрочитанных сообщений. Инферно / Inferno (боевик, триллер, драма, криминал, детектив, приключения, 2016) BDRip от ExKinoRay | iTunes

marya111

489 | 102

1.46 ГБ

В этой теме нет новых непрочитанных сообщений. Инферно / Inferno [Боевик, триллер, драма, 2016] DVD5, Dub

salma3

57 | 34

4.38 ГБ

В этой теме нет новых непрочитанных сообщений. Инферно / Inferno [боевик, триллер, драма, 2016] WEB-DL 1080p, Dub [чистый звук]

salma3

7152 | 3406

5.04 ГБ


Начать новую тему Ответить на тему  [ 1 сообщение ] 




Для Мосгорсуда, Роскомнадзора и рекламодателей:: mosgorsud-torrent[собачка]yandex.ru
cron