Торрент файл
скачать торрент магнет ссылка Добавлен: 05 апр 2017, 11:10
Размер: 1.66 ГБ
Сидеров: 0
Личеров: 1
Автор

СообщениеДобавлено: 05 апр 2017, 11:10 

Не в сети
Супермодератор
Аватара пользователя
Дата регистрации:
15 фев 2012, 16:44
Возраст: 28
Спасибо: 7207 / 2147
Сообщения: 65589
Страна: США
Жанр: фантастика, триллер, детектив
Возраст: 16+
Режиссер: Мэтт Остерман
В ролях: Фрэнк Эшмор, Люк Барнетт, Доминик Богарт, Грант Боулер, Томас Кэвэна, Дейн Кук, Ким Эстес, Бен Фельдман, Стефани Фельдман, Дэннис Барр, Стивенс Гастон
Описание: Сюжет вращается вокруг астронавтов, отправившихся на симуляторе в путешествие по направлению к далекой планете. Цель этого эксперимента состоит в том, чтобы проверить членов экипажа космического корабля на психологическую совместимость во время длительного полета.
Продолжительность: 01:30:05
Перевод: Профессиональный двухголосый [НТВ+]
Оригинальная дорожка: нет
Автор рипа:
Качество видео: BDRip 720p Исходник: Blu-Ray Remux (1080p) Формат: mp4
Видео кодек: MPEG-4 AVC Аудио кодек: AAC
Видео: 1280x544 at 23.976 fps, AVC at 2 500 kbps avg, 0.150 bit/pixel
Аудио №1 Rus: 48.0 KHz, AAC, 2 ch, CBR, 128.0 Kbps
Субтитры: нет
Навигация по главам: нет
General
Complete name : ...400_dnej.2015_KinoGadget.mp4
Format : MPEG-4
Format profile : Base Media
Codec ID : isom (isom)
File size : 1.66 GiB
Duration : 1 h 30 min
Overall bit rate mode : Variable
Overall bit rate : 2 632 kb/s
Movie name : 400 дней | KinoGadget
Performer : Мэтт Остерман
Director : Мэтт Остерман
Actor : Фрэнк Эшмор / Люк Барнетт / Доминик Богарт / Грант Боулер / Томас Кэвэна / Дейн Кук / Ким Эстес / Бен Фельдман / Стефани Фельдман / Дэннис Барр / Стивенс Гастон
Screenplay by : Мэтт Остерман
Producer : Гэбриел Кауэн / Джон Суитц / Дейн Кук
Genre : Mystery, Thriller
ContentType : Short Film
Recorded date : 2015
Encoded date : UTC 2017-04-03 16:02:55
Tagged date : UTC 2017-04-03 16:11:23
Cover : Yes
ContentRating : mpaa|PG-13|300|
LongDeion : Астронавтов отправили на симуляторе в путешествие к далекой планете. Цель этого эксперимента состоит в том, чтобы проверить членов экипажа космического корабля на психологическую совместимость во время длительного полета.
HDVideo : Yes
Video
ID : 1
Format : AVC
Format/Info : Advanced Video Codec
Format profile : [email protected]
Format settings, CABAC : Yes
Format settings, ReFrames : 11 frames
Codec ID : avc1
Codec ID/Info : Advanced Video Coding
Duration : 1 h 30 min
Bit rate : 2 500 kb/s
Maximum bit rate : 12.9 Mb/s
Width : 1 280 pixels
Height : 544 pixels
Display aspect ratio : 2.35:1
Frame rate mode : Constant
Frame rate : 23.976 (24000/1001) FPS
Color space : YUV
Chroma subsampling : 4:2:0
Bit depth : 8 bits
Scan type : Progressive
Bits/(Pixel*Frame) : 0.150
Stream size : 1.57 GiB (95%)
Writing library : x264 core 148 r2638 7599210
Encoding settings : cabac=1 / ref=11 / deblock=1:-1:-1 / analyse=0x3:0x133 / me=umh / subme=9 / psy=1 / psy_rd=1.00:0.00 / mixed_ref=1 / me_range=32 / chroma_me=1 / trellis=2 / 8x8dct=1 / cqm=0 / deadzone=21,11 / fast_pskip=1 / chroma_qp_offset=-2 / threads=3 / lookahead_threads=1 / sliced_threads=0 / nr=0 / decimate=1 / interlaced=0 / bluray_compat=0 / constrained_intra=0 / bframes=8 / b_pyramid=2 / b_adapt=2 / b_bias=0 / direct=3 / weightb=1 / open_gop=0 / weightp=2 / keyint=240 / keyint_min=23 / scenecut=40 / intra_refresh=0 / rc_lookahead=60 / rc=2pass / mbtree=1 / bitrate=2500 / ratetol=1.0 / qcomp=0.60 / qpmin=0 / qpmax=69 / qpstep=4 / cplxblur=20.0 / qblur=0.5 / ip_ratio=1.40 / aq=1:1.00
Language : English
Encoded date : UTC 2017-04-03 15:57:33
Tagged date : UTC 2017-04-03 16:03:40
Audio
ID : 2
Format : AAC
Format/Info : Advanced Audio Codec
Format profile : LC
Codec ID : 40
Duration : 1 h 30 min
Bit rate mode : Variable
Bit rate : 128 kb/s
Maximum bit rate : 135 kb/s
Channel(s) : 2 channels
Channel positions : Front: L R
Sampling rate : 48.0 kHz
Frame rate : 46.875 FPS (1024 spf)
Compression mode : Lossy
Stream size : 82.5 MiB (5%)
Title : P2
Language : Russian
Encoded date : UTC 2017-04-03 15:44:05
Tagged date : UTC 2017-04-03 16:03:40




_________________
Проголосуй за трекер Открытый торрент трекер - RUS-MEDIA.ORG

Проголосуй Открытый торрент трекер - RUS-MEDIA.ORG


Вернуться к началу
 Профиль Отправить личное сообщение  
 
   Похожие торренты   Автор   Торрент   Размер 
В этой теме нет новых непрочитанных сообщений. 400 дней / 400 Days [фантастика, триллер, детектив, 2015] BDRip 720p, Dvo [iPad]

salma3

45 | 21

1.66 ГБ

В этой теме нет новых непрочитанных сообщений. 400 дней / 400 Days (Мэтт Остерман) [фантастика, триллер, детектив, 2015] BDRip, Dvo [НТВ+]

Dracon

304 | 47

1.45 ГБ

В этой теме нет новых непрочитанных сообщений. Прибытие / Arrival [фантастика, триллер, драма, детектив, 2016] BDRip 720p, Dub [iPad] [Лицензия]

salma3

197 | 32

1.17 ГБ

В этой теме нет новых непрочитанных сообщений. Человек-муравей / Ant-Man [фантастика, боевик, комедия, 2015] BDRip 720p, Dub [iPad] [Лицензия]

salma3

85 | 19

2.15 ГБ

В этой теме нет новых непрочитанных сообщений. Бугимен / Boogeyman [ужасы, триллер, драма, детектив, 2005] BDRip 720p, Dub [iPad]

salma3

0 | 0

2.12 ГБ

В этой теме нет новых непрочитанных сообщений. Клетка / The Cell [ужасы, фантастика, триллер, 2000] BDRip 720p, Dub [iPad]

salma3

13 | 2

2.27 ГБ

В этой теме нет новых непрочитанных сообщений. Три дня Кондора / Three Days of the Condor [триллер, мелодрама, детектив, 1975] BDRip 720p, Mvo

salma3

15 | 6

10.94 ГБ


Начать новую тему Ответить на тему  [ 1 сообщение ] 




Для Мосгорсуда, Роскомнадзора и рекламодателей:: mosgorsud-torrent[собачка]yandex.ru
cron