Торрент файл
скачать торрент магнет ссылка Добавлен: 05 апр 2017, 11:05
Размер: 2.67 ГБ
Сидеров: 16
Личеров: 10
Автор

СообщениеДобавлено: 05 апр 2017, 11:05 

Не в сети
Супермодератор
Аватара пользователя
Дата регистрации:
15 фев 2012, 16:44
Возраст: 28
Спасибо: 7290 / 2147
Сообщения: 70489
Страна: США
Жанр: фэнтези, комедия
Возраст: 18+
Режиссер: Сет МакФарлейн
В ролях: Марк Уолберг, Мила Кунис, Сет МакФарлейн, Джоэл МакХэйл, Джованни Рибизи, Патрик Варбертон, Мэтт Уолш, Джессика Барт, Аэдин Минкс, Билл Смитрович, Патрик Стюарт, Бреттон Мэнли, Ральф Гармен, Алекс Борштейн, Джон Винер, Лора Вандервурт, Роберт Ву
Описание: Джон влюблен в красавицу Лори. Он работает в прокате автомобилей и имеет большие планы на будущее. Но в их отношения вмешивается третий, давний друг Джона — Тед. Он отрывается сутки напролет, предпочитает случайные связи и не желает терять друга. Но никто на самом деле не знает на что он способен, ведь Тед — большой плюшевый медведь.
Продолжительность: 01:46:03
Перевод: Дублированный [Blu-Ray CEE]
Оригинальная дорожка: есть
Автор рипа:
Качество видео: BDRip 720p Исходник: Blu-Ray Remux (1080p) Формат: mp4
Видео кодек: MPEG-4 AVC Аудио кодек: AAC
Видео: 1280x690 (1.85:1) at 23.976 fps, AVC at 3 339 kbps avg, 0.158 bit/pixel
Аудио №1 Rus: 48.0 KHz, AAC, 2 ch, 128.0 Kbps
Аудио №2 Eng: 48.0 KHz, AAC, 2 ch, 128.0 Kbps
Субтитры: русские (форсированные, полные), английские (полные)
Навигация по главам: есть
Размер: 2.67 GiB
avs [info]: 1280x690p 1:1 @ 24000/1001 fps (cfr)
x264 [info]: using SAR=1/1
x264 [info]: using cpu capabilities: MMX2 SSE2Fast SSSE3 Cache64
x264 [info]: profile High, level 4.1
x264 [info]: frame I:1736 Avg QP:14.72 size:152354
x264 [info]: frame P:30378 Avg QP:17.49 size: 36901
x264 [info]: frame B:120454 Avg QP:19.35 size: 10551
x264 [info]: consecutive B-frames: 2.1% 1.5% 5.1% 11.9% 15.8% 54.0% 9.6%
x264 [info]: mb I I16..4: 4.4% 77.2% 18.3%
x264 [info]: mb P I16..4: 1.6% 7.3% 1.1% P16..4: 43.3% 25.3% 16.2% 0.0% 0.0% skip: 5.1%
x264 [info]: mb B I16..4: 0.1% 0.7% 0.1% B16..8: 43.4% 8.6% 1.7% direct: 4.6% skip:40.9% L0:45.9% L1:47.2% BI: 6.9%
x264 [info]: 8x8 transform intra:75.6% inter:63.7%
x264 [info]: coded y,uvDC,uvAC intra: 77.8% 83.7% 64.3% inter: 21.6% 23.4% 4.2%
x264 [info]: i16 v,h,dc,p: 55% 11% 5% 29%
x264 [info]: i8 v,h,dc,ddl,ddr,vr,hd,vl,hu: 20% 14% 24% 5% 7% 8% 7% 7% 7%
x264 [info]: i4 v,h,dc,ddl,ddr,vr,hd,vl,hu: 31% 15% 11% 6% 9% 8% 8% 6% 6%
x264 [info]: i8c dc,h,v,p: 52% 18% 21% 9%
x264 [info]: Weighted P-Frames: Y:2.1% UV:1.2%
x264 [info]: ref P L0: 46.3% 9.5% 18.1% 7.7% 5.9% 4.3% 3.8% 2.1% 2.1% 0.2% 0.0%
x264 [info]: ref B L0: 69.1% 13.2% 7.3% 3.7% 2.7% 2.3% 1.2% 0.4%
x264 [info]: ref B L1: 90.9% 9.1%
x264 [info]: kb/s:3339.56
encoded 152568 frames, 1.96 fps, 3339.56 kb/s

General
Complete name : ...Tretij_lishnij_2012_KinoGadget.mp4
Format : MPEG-4
Format profile : Base Media
Codec ID : isom (isom)
File size : 2.67 GiB
Duration : 1 h 46 min
Overall bit rate mode : Variable
Overall bit rate : 3 607 kb/s
Movie name : Третий лишний | KinoGadget
Performer : Сет МакФарлейн
Director : Сет МакФарлейн
Actor : Марк Уолберг / Мила Кунис / Сет МакФарлейн / Джоэл МакХэйл / Джованни Рибизи / Патрик Варбертон / Мэтт Уолш / Джессика Барт / Аэдин Минкс / Билл Смитрович / Патрик Стюарт / Бреттон Мэнли / Ральф Гармен / Алекс Борштейн / Джон Винер / Лора Вандервурт / Роберт Ву
Screenplay by : Сет МакФарлейн / Алек Салкин / Уэллесли Уайлд
Producer : Джейсон Кларк / Джон Джейкобс / Сет МакФарлейн
Genre : Comedy
ContentType : Short Film
Recorded date : 2012
Encoded date : UTC 2017-04-03 14:53:44
Tagged date : UTC 2017-04-03 16:36:28
Cover : Yes
LongDeion : Джон влюблен в красавицу Лори. Он работает в прокате автомобилей и имеет большие планы на будущее. Но в их отношения вмешивается третий, давний друг Джона — Тед. Он отрывается сутки напролет, предпочитает случайные связи и не желает терять друга. Но никто на самом деле не знает на что он способен, ведь Тед — большой плюшевый медведь.
HDVideo : Yes
Video
ID : 1
Format : AVC
Format/Info : Advanced Video Codec
Format profile : [email protected]
Format settings, CABAC : Yes
Format settings, ReFrames : 9 frames
Codec ID : avc1
Codec ID/Info : Advanced Video Coding
Duration : 1 h 46 min
Bit rate : 3 339 kb/s
Maximum bit rate : 21.2 Mb/s
Width : 1 280 pixels
Height : 690 pixels
Display aspect ratio : 1.85:1
Frame rate mode : Constant
Frame rate : 23.976 (24000/1001) FPS
Color space : YUV
Chroma subsampling : 4:2:0
Bit depth : 8 bits
Scan type : Progressive
Bits/(Pixel*Frame) : 0.158
Stream size : 2.47 GiB (93%)
Writing library : x264 core 148 r2638 7599210
Encoding settings : cabac=1 / ref=9 / deblock=1:-2:-1 / analyse=0x3:0x113 / me=umh / subme=7 / psy=1 / psy_rd=1.00:0.00 / mixed_ref=1 / me_range=32 / chroma_me=1 / trellis=2 / 8x8dct=1 / cqm=0 / deadzone=21,11 / fast_pskip=0 / chroma_qp_offset=-2 / threads=3 / lookahead_threads=1 / sliced_threads=0 / nr=0 / decimate=1 / interlaced=0 / bluray_compat=0 / constrained_intra=0 / bframes=6 / b_pyramid=2 / b_adapt=2 / b_bias=0 / direct=1 / weightb=1 / open_gop=0 / weightp=2 / keyint=250 / keyint_min=25 / scenecut=40 / intra_refresh=0 / rc_lookahead=60 / rc=crf / mbtree=1 / crf=18.0 / qcomp=0.60 / qpmin=0 / qpmax=69 / qpstep=4 / vbv_maxrate=62500 / vbv_bufsize=78125 / crf_max=0.0 / nal_hrd=none / filler=0 / ip_ratio=1.40 / aq=1:1.00
Encoded date : UTC 2017-04-03 13:22:07
Tagged date : UTC 2017-04-03 14:54:37
Audio #1
ID : 2
Format : AAC
Format/Info : Advanced Audio Codec
Format profile : LC
Codec ID : 40
Duration : 1 h 46 min
Bit rate mode : Variable
Bit rate : 128 kb/s
Maximum bit rate : 135 kb/s
Channel(s) : 2 channels
Channel positions : Front: L R
Sampling rate : 48.0 kHz
Frame rate : 46.875 FPS (1024 spf)
Compression mode : Lossy
Stream size : 97.1 MiB (4%)
Title : Dub [Blu-Ray CEE]
Language : Russian
Encoded date : UTC 2017-04-03 13:30:05
Tagged date : UTC 2017-04-03 14:54:37
Audio #2
ID : 3
Format : AAC
Format/Info : Advanced Audio Codec
Format profile : LC
Codec ID : 40
Duration : 1 h 46 min
Bit rate mode : Variable
Bit rate : 128 kb/s
Maximum bit rate : 134 kb/s
Channel(s) : 2 channels
Channel positions : Front: L R
Sampling rate : 48.0 kHz
Frame rate : 46.875 FPS (1024 spf)
Compression mode : Lossy
Stream size : 97.1 MiB (4%)
Title : Original
Language : English
Encoded date : UTC 2017-04-03 13:44:52
Tagged date : UTC 2017-04-03 14:54:37
Text #1
ID : 4
Format : Timed Text
Codec ID : tx3g
Duration : 1 h 39 min
Bit rate mode : Variable
Bit rate : 1 b/s
Stream size : 769 Bytes (0%)
Title : Forced
Language : Russian
Forced : No
Encoded date : UTC 2017-04-03 14:54:36
Tagged date : UTC 2017-04-03 14:54:37
Text #2
ID : 5
Format : Timed Text
Codec ID : tx3g
Duration : 1 h 40 min
Bit rate mode : Variable
Bit rate : 120 b/s
Stream size : 88.1 KiB (0%)
Title : Full
Language : Russian
Forced : No
Encoded date : UTC 2017-04-03 14:54:36
Tagged date : UTC 2017-04-03 14:54:37
Text #3
ID : 6
Format : Timed Text
Codec ID : tx3g
Duration : 1 h 40 min
Bit rate mode : Variable
Bit rate : 76 b/s
Stream size : 55.8 KiB (0%)
Title : Full
Language : English
Forced : No
Encoded date : UTC 2017-04-03 14:54:36
Tagged date : UTC 2017-04-03 14:54:37
Menu
00:00:00.000 : Chapter 01
00:04:05.912 : Chapter 02
00:10:11.819 : Chapter 03
00:15:25.132 : Chapter 04
00:19:31.545 : Chapter 05
00:25:47.879 : Chapter 06
00:30:48.972 : Chapter 07
00:34:31.194 : Chapter 08
00:41:05.045 : Chapter 09
00:47:41.692 : Chapter 10
00:52:33.942 : Chapter 11
00:58:44.395 : Chapter 12
01:03:42.360 : Chapter 13
01:08:20.638 : Chapter 14
01:13:04.421 : Chapter 15
01:17:35.025 : Chapter 16
01:24:12.630 : Chapter 17
01:31:35.490 : Chapter 18
01:35:17.670 : Chapter 19
01:40:34.737 : Chapter 20




_________________
Проголосуй за трекер Открытый торрент трекер - RUS-MEDIA.ORG

Проголосуй Открытый торрент трекер - RUS-MEDIA.ORG


Вернуться к началу
 Профиль Отправить личное сообщение  
 
   Похожие торренты   Автор   Торрент   Размер 
В этой теме нет новых непрочитанных сообщений. Третий лишний 2 / Ted 2 [комедия, 2015] BDRip 720p, Dub [Расширенная версия] [iPad] [iTunes]

salma3

42 | 25

2.56 ГБ

В этой теме нет новых непрочитанных сообщений. Джанго освобожденный / Django Unchained [драма, вестерн, приключения, комедия, 2012] BDRip 720p, Dub [iPad] [Лицензия]

salma3

96 | 10

3.47 ГБ

В этой теме нет новых непрочитанных сообщений. Третий лишний / Tangled [Триллер, драма, 2001] WEB-DLRip 720p, Mvo

salma3

0 | 0

3.99 ГБ

В этой теме нет новых непрочитанных сообщений. Третий лишний / The Third Wheel [мелодрама, комедия, 2002] WEB-DLRip, Dvo

salma3

37 | 9

1.45 ГБ

В этой теме нет новых непрочитанных сообщений. Третий лишний / The Third Wheel [Комедия, мелодрама, 2002] WEB-DL 1080p, Dvo

salma3

0 | 0

9.03 ГБ

В этой теме нет новых непрочитанных сообщений. Защитники [фантастика, фэнтези, боевик, приключения, 2017] BDRip 720p [iPad] [Лицензия]

salma3

368 | 63

2.08 ГБ

В этой теме нет новых непрочитанных сообщений. Большой и добрый великан / The BFG [фэнтези, приключения, семейный, 2016] BDRip 720p, Dub [iPad] [Лицензия]

salma3

0 | 0

2.26 ГБ


Начать новую тему Ответить на тему  [ 1 сообщение ] 




Для Мосгорсуда, Роскомнадзора и рекламодателей:: mosgorsud-torrent[собачка]yandex.ru
cron