Торрент файл
скачать торрент магнет ссылка Добавлен: 03 апр 2017, 10:09
Размер: 1.9 ГБ
Сидеров: 0
Личеров: 0
Автор

СообщениеДобавлено: 03 апр 2017, 10:09 

Не в сети
Супермодератор
Аватара пользователя
Дата регистрации:
15 фев 2012, 16:44
Возраст: 28
Спасибо: 7204 / 2147
Сообщения: 65100
Страна: США
Жанр: ужасы, триллер
Возраст: 18+
Режиссер: Маркус Данстэн
В ролях: Мадлен Зима, Андреа Рот, Джош Стюарт, Хуан Фернандес, Даниэлла Алонсо, Роберт Уиздом, Майкл Рейли Бурк, Карли Скотт Коллинз, Кристал Майо, Дайан Голднер
Описание: Бывший домушник Аркин забирается в загородный коттедж своего начальника с тем, чтобы ограбив его, выплатить долг своей бывшей жене. Однако попав внутрь, он вскоре понимает, что дом и его обитатели уже захвачены крайне неприятным типом в плюшевой маске и при полном наборе пыточных инструментов времен Испанской Инквизиции, после чего предпринимает отчаянную попытку спасти семью, которую он изначально собирался обчистить.
Продолжительность: 01:29:52
Перевод: Дублированный [R5]
Оригинальная дорожка: нет
Автор рипа:
Качество видео: BDRip 720p Исходник: Blu-Ray (1080p) Формат: mp4
Видео кодек: MPEG-4 AVC Аудио кодек: AAC
Видео: 1280x534 (2.40:1) at 23.976 fps, AVC at 2 751 kbps avg, 0.168 bit/pixel
Аудио №1 Rus: 48.0 KHz, AAC, 2 ch, 128.0 Kbps
Аудио №2 Eng: 48.0 KHz, AAC, 2 ch, 128.0 Kbps
Субтитры: нет
Навигация по главам: есть
Размер: 1.90 GiB
avs [info]: 1280x534p 1:1 @ 24000/1001 fps (cfr)
x264 [info]: using SAR=1/1
x264 [info]: using cpu capabilities: MMX2 SSE2Fast SSSE3 Cache64
x264 [info]: profile High, level 4.1
x264 [info]: frame I:725 Avg QP:20.79 size: 70768
x264 [info]: frame P:24144 Avg QP:24.43 size: 22349
x264 [info]: frame B:104587 Avg QP:25.07 size: 12103
x264 [info]: consecutive B-frames: 1.8% 1.5% 4.3% 10.6% 12.3% 43.1% 6.9% 2.6% 4.3% 4.0% 3.3% 3.7% 1.7%
x264 [info]: mb I I16..4: 8.8% 82.4% 8.8%
x264 [info]: mb P I16..4: 2.0% 16.0% 0.9% P16..4: 41.9% 13.5% 10.0% 0.0% 0.0% skip:15.7%
x264 [info]: mb B I16..4: 0.1% 2.2% 0.0% B16..8: 46.7% 7.2% 1.4% direct: 7.9% skip:34.4% L0:47.2% L1:50.7% BI: 2.1%
x264 [info]: 8x8 transform intra:87.0% inter:70.7%
x264 [info]: coded y,uvDC,uvAC intra: 77.7% 73.9% 50.7% inter: 26.2% 29.5% 4.7%
x264 [info]: i16 v,h,dc,p: 37% 20% 10% 33%
x264 [info]: i8 v,h,dc,ddl,ddr,vr,hd,vl,hu: 15% 9% 39% 5% 7% 6% 6% 6% 7%
x264 [info]: i4 v,h,dc,ddl,ddr,vr,hd,vl,hu: 26% 14% 19% 7% 8% 8% 7% 6% 4%
x264 [info]: i8c dc,h,v,p: 60% 14% 17% 9%
x264 [info]: Weighted P-Frames: Y:6.9% UV:5.3%
x264 [info]: ref P L0: 42.3% 9.6% 19.2% 7.1% 5.7% 4.0% 3.5% 1.9% 1.8% 1.6% 1.5% 1.5% 0.3% 0.0%
x264 [info]: ref B L0: 67.8% 14.1% 7.0% 3.3% 2.3% 1.9% 1.4% 0.8% 0.7% 0.4% 0.2%
x264 [info]: ref B L1: 90.4% 9.6%
x264 [info]: kb/s:2750.93
encoded 129456 frames, 1.60 fps, 2750.93 kb/s

General
Format : MPEG-4
Format profile : Base Media
Codec ID : isom (isom)
File size : 1.90 GiB
Duration : 1 h 31 min
Overall bit rate mode : Variable
Overall bit rate : 2 984 kb/s
Movie name : Коллекционер | KinoGadget
Performer : Маркус Данстэн
Director : Маркус Данстэн
Actor : Мадлен Зима / Андреа Рот / Джош Стюарт / Хуан Фернандес / Даниэлла Алонсо / Роберт Уиздом / Майкл Рейли Бурк / Карли Скотт Коллинз / Кристал Майо / Дайан Голднер
Screenplay by : Патрик Мелтон / Маркус Данстэн
Producer : Бретт Форбс / Джули Ричардсон / Патрик Риззотти
Genre : Horror, Thriller
ContentType : Short Film
Recorded date : 2009
Encoded date : UTC 2017-02-01 16:35:31
Tagged date : UTC 2017-02-01 16:42:03
Cover : Yes
ContentRating : mpaa|R|400|
LongDeion : Бывший домушник Аркин забирается в загородный коттедж своего начальника с тем, чтобы ограбив его, выплатить долг своей бывшей жене. Однако попав внутрь, он вскоре понимает, что дом и его обитатели уже захвачены крайне неприятным типом в плюшевой маске и при полном наборе пыточных инструментов времен Испанской Инквизиции, после чего предпринимает отчаянную попытку спасти семью, которую он изначально собирался обчистить.
HDVideo : Yes
Video
ID : 1
Format : AVC
Format/Info : Advanced Video Codec
Format profile : [email protected]
Format settings, CABAC : Yes
Format settings, ReFrames : 12 frames
Codec ID : avc1
Codec ID/Info : Advanced Video Coding
Duration : 1 h 29 min
Bit rate : 2 751 kb/s
Maximum bit rate : 16.1 Mb/s
Width : 1 280 pixels
Height : 534 pixels
Display aspect ratio : 2.40:1
Frame rate mode : Constant
Frame rate : 23.976 (24000/1001) FPS
Color space : YUV
Chroma subsampling : 4:2:0
Bit depth : 8 bits
Scan type : Progressive
Bits/(Pixel*Frame) : 0.168
Stream size : 1.73 GiB (91%)
Writing library : x264 core 148 r2638 7599210
Encoding settings : cabac=1 / ref=12 / deblock=1:-1:-1 / analyse=0x3:0x113 / me=umh / subme=7 / psy=1 / psy_rd=1.00:0.15 / mixed_ref=1 / me_range=32 / chroma_me=1 / trellis=2 / 8x8dct=1 / cqm=0 / deadzone=21,11 / fast_pskip=1 / chroma_qp_offset=-3 / threads=3 / lookahead_threads=1 / sliced_threads=0 / nr=0 / decimate=1 / interlaced=0 / bluray_compat=0 / constrained_intra=0 / bframes=12 / b_pyramid=2 / b_adapt=2 / b_bias=0 / direct=1 / weightb=1 / open_gop=0 / weightp=2 / keyint=240 / keyint_min=23 / scenecut=40 / intra_refresh=0 / rc_lookahead=40 / rc=crf / mbtree=1 / crf=23.0 / qcomp=0.60 / qpmin=0 / qpmax=69 / qpstep=4 / vbv_maxrate=62500 / vbv_bufsize=78125 / crf_max=0.0 / nal_hrd=none / filler=0 / ip_ratio=1.40 / aq=1:1.00
Encoded date : UTC 2017-02-01 15:36:11
Tagged date : UTC 2017-02-01 16:36:14
Audio #1
ID : 2
Format : AAC
Format/Info : Advanced Audio Codec
Format profile : LC
Codec ID : 40
Duration : 1 h 31 min
Bit rate mode : Variable
Bit rate : 128 kb/s
Maximum bit rate : 135 kb/s
Channel(s) : 2 channels
Channel positions : Front: L R
Sampling rate : 48.0 kHz
Frame rate : 46.875 FPS (1024 spf)
Compression mode : Lossy
Stream size : 83.4 MiB (4%)
Title : Dub
Language : Russian
Encoded date : UTC 2017-02-01 15:46:15
Tagged date : UTC 2017-02-01 16:36:14
Audio #2
ID : 3
Format : AAC
Format/Info : Advanced Audio Codec
Format profile : LC
Codec ID : 40
Duration : 1 h 29 min
Bit rate mode : Variable
Bit rate : 128 kb/s
Maximum bit rate : 135 kb/s
Channel(s) : 2 channels
Channel positions : Front: L R
Sampling rate : 48.0 kHz
Frame rate : 46.875 FPS (1024 spf)
Compression mode : Lossy
Stream size : 82.4 MiB (4%)
Language : English
Encoded date : UTC 2017-02-01 15:55:54
Tagged date : UTC 2017-02-01 16:36:14
Menu




_________________
Проголосуй за трекер Открытый торрент трекер - RUS-MEDIA.ORG

Проголосуй Открытый торрент трекер - RUS-MEDIA.ORG


Вернуться к началу
 Профиль Отправить личное сообщение  
 
   Похожие торренты   Автор   Торрент   Размер 
В этой теме нет новых непрочитанных сообщений. Коллекционер 2 / The Collection [ужасы, боевик, триллер, 2012] BDRip 720p, Dub [iPad]

salma3

0 | 0

1.73 ГБ

В этой теме нет новых непрочитанных сообщений. Мой кровавый Валентин / My Bloody Valentine [ужасы, триллер, 2009] BDRip 720p, Dub [iPad]

salma3

0 | 0

1.93 ГБ

В этой теме нет новых непрочитанных сообщений. Спуск 2 / The Descent: Part 2 [Приключения, Триллер, Ужасы, 2009] BDRip 720p, Dub [iPad] [Лицензия]

salma3

19 | 7

2.1 ГБ

В этой теме нет новых непрочитанных сообщений. Остановка / Rest Stop [ужасы, триллер, 2006] BDRip 720p, Dvo [iPad]

salma3

34 | 6

2.01 ГБ

В этой теме нет новых непрочитанных сообщений. Бугимен 2 / Boogeyman 2 [ужасы, триллер, драма, 2007] BDRip 720p, Dub [iPad]

salma3

0 | 0

1.67 ГБ

В этой теме нет новых непрочитанных сообщений. Клетка / The Cell [ужасы, фантастика, триллер, 2000] BDRip 720p, Dub [iPad]

salma3

13 | 2

2.27 ГБ

В этой теме нет новых непрочитанных сообщений. Бугимен / Boogeyman [ужасы, триллер, драма, детектив, 2005] BDRip 720p, Dub [iPad]

salma3

0 | 0

2.12 ГБ


Начать новую тему Ответить на тему  [ 1 сообщение ] 




Для Мосгорсуда, Роскомнадзора и рекламодателей:: mosgorsud-torrent[собачка]yandex.ru
cron