Торрент файл
скачать торрент магнет ссылка Добавлен: 01 апр 2017, 11:51
Размер: 2.31 ГБ
Сидеров: 65
Личеров: 3
Автор

СообщениеДобавлено: 01 апр 2017, 11:51 

Не в сети
Супермодератор
Аватара пользователя
Дата регистрации:
15 фев 2012, 16:44
Возраст: 28
Спасибо: 7207 / 2147
Сообщения: 65688
Страна: США
Жанр: боевик, драма, криминал, вестерн
Возраст: 16+
Режиссер: Дэвид Маккензи / David Mackenzie
В ролях: Джефф Бриджес, Крис Пайн, Бен Фостер, Джил Бирмингем, Дейл Дикки, Уильям Стерчи, Бак Тейлор, Кристин Берг, Кит Мэривезер, Жакмо Буззел
Описание: Два брата-лузера решают наведаться в хранилища пары-тройки банков, которые много лет безбожно обкрадывают своих должников. Расследование дерзких ограблений с грубым почерком увенчает карьеру шерифа Маркуса. Но куда выведет это нехитрое дело?



Продолжительность: 01:42:15
Перевод: Дублированный [Лицензия]
Оригинальная дорожка: есть
Автор рипа:
Качество видео: BDRip 720p Исходник: Blu-Ray Remux (1080p) Формат: mp4
Видео кодек: MPEG-4 AVC Аудио кодек: AAC
Видео: 1280x536 (2.40:1) at 23.976 fps, AVC at 2 973 kbps avg, 0.181 bit/pixel
Аудио №1 Rus: 48.0 KHz, AAC, 2 ch, 128.0 Kbps
Аудио №2 Eng: 48.0 KHz, AAC, 2 ch, 128.0 Kbps
Субтитры: русские (форсированные, полные), английские (полные)
Навигация по главам: есть
Размер: 2.31 GiB
avs [info]: 1280x536p 1:1 @ 24000/1001 fps (cfr)
x264 [info]: using SAR=1/1
x264 [info]: using cpu capabilities: MMX2 SSE2Fast SSSE3 Cache64
x264 [info]: profile High, level 4.1
x264 [info]: frame I:938 Avg QP:15.42 size:123655
x264 [info]: frame P:28913 Avg QP:18.66 size: 39730
x264 [info]: frame B:117252 Avg QP:21.29 size: 8658
x264 [info]: consecutive B-frames: 1.0% 1.2% 4.6% 15.3% 15.8% 54.0% 8.0%
x264 [info]: mb I I16..4: 3.7% 74.0% 22.4%
x264 [info]: mb P I16..4: 1.2% 7.7% 1.2% P16..4: 41.1% 28.9% 16.9% 0.0% 0.0% skip: 3.1%
x264 [info]: mb B I16..4: 0.1% 0.6% 0.1% B16..8: 42.7% 8.7% 2.2% direct: 4.9% skip:40.6% L0:44.6% L1:46.1% BI: 9.3%
x264 [info]: 8x8 transform intra:76.0% inter:62.7%
x264 [info]: coded y,uvDC,uvAC intra: 76.6% 80.0% 50.1% inter: 23.2% 24.7% 3.2%
x264 [info]: i16 v,h,dc,p: 31% 32% 6% 30%
x264 [info]: i8 v,h,dc,ddl,ddr,vr,hd,vl,hu: 18% 18% 22% 5% 8% 8% 8% 6% 7%
x264 [info]: i4 v,h,dc,ddl,ddr,vr,hd,vl,hu: 23% 20% 12% 6% 10% 9% 9% 6% 6%
x264 [info]: i8c dc,h,v,p: 46% 26% 19% 9%
x264 [info]: Weighted P-Frames: Y:1.9% UV:0.7%
x264 [info]: ref P L0: 42.3% 12.4% 18.5% 6.9% 6.3% 4.3% 4.2% 2.3% 2.6% 0.2% 0.0%
x264 [info]: ref B L0: 72.6% 12.3% 6.2% 3.2% 2.3% 2.0% 1.1% 0.4%
x264 [info]: ref B L1: 92.7% 7.3%
x264 [info]: kb/s:2972.82
encoded 147103 frames, 2.47 fps, 2972.82 kb/s
General
Complete name : ...Lyuboj_cenoj_2016_KinoGadget.mp4
Format : MPEG-4
Format profile : Base Media
Codec ID : isom (isom)
File size : 2.31 GiB
Duration : 1 h 42 min
Overall bit rate mode : Variable
Overall bit rate : 3 241 kb/s
Movie name : Любой ценой | KinoGadget
Performer : Дэвид Маккензи
Director : Дэвид Маккензи
Actor : Джефф Бриджес / Крис Пайн / Бен Фостер / Джил Бирмингем / Дейл Дикки / Уильям Стерчи / Бак Тейлор / Кристин Берг / Кит Мэривезер / Жакмо Буззел
Screenplay by : Тейлор Шеридан
Producer : Питер Берг / Карла Хэкен / Сидни Киммел
Genre : Crime, Drama, Thriller
ContentType : Short Film
Recorded date : 2016
Encoded date : UTC 2017-03-31 11:25:15
Tagged date : UTC 2017-03-31 11:40:50
Cover : Yes
ContentRating : mpaa|R|400|
LongDeion : Два брата-лузера решают наведаться в хранилища пары-тройки банков, которые много лет безбожно обкрадывают своих должников. Расследование дерзких ограблений с грубым почерком увенчает карьеру шерифа Маркуса. Но куда выведет это нехитрое дело?
HDVideo : Yes
Video
ID : 1
Format : AVC
Format/Info : Advanced Video Codec
Format profile : [email protected]
Format settings, CABAC : Yes
Format settings, ReFrames : 9 frames
Codec ID : avc1
Codec ID/Info : Advanced Video Coding
Duration : 1 h 42 min
Bit rate : 2 973 kb/s
Maximum bit rate : 11.4 Mb/s
Width : 1 280 pixels
Height : 536 pixels
Display aspect ratio : 2.40:1
Frame rate mode : Constant
Frame rate : 23.976 (24000/1001) FPS
Color space : YUV
Chroma subsampling : 4:2:0
Bit depth : 8 bits
Scan type : Progressive
Bits/(Pixel*Frame) : 0.181
Stream size : 2.12 GiB (92%)
Writing library : x264 core 148 r2638 7599210
Encoding settings : cabac=1 / ref=9 / deblock=1:-2:-1 / analyse=0x3:0x113 / me=umh / subme=7 / psy=1 / psy_rd=1.00:0.00 / mixed_ref=1 / me_range=32 / chroma_me=1 / trellis=2 / 8x8dct=1 / cqm=0 / deadzone=21,11 / fast_pskip=0 / chroma_qp_offset=-2 / threads=3 / lookahead_threads=1 / sliced_threads=0 / nr=0 / decimate=1 / interlaced=0 / bluray_compat=0 / constrained_intra=0 / bframes=6 / b_pyramid=2 / b_adapt=2 / b_bias=0 / direct=1 / weightb=1 / open_gop=0 / weightp=2 / keyint=250 / keyint_min=25 / scenecut=40 / intra_refresh=0 / rc_lookahead=60 / rc=crf / mbtree=1 / crf=18.5 / qcomp=0.60 / qpmin=0 / qpmax=69 / qpstep=4 / vbv_maxrate=62500 / vbv_bufsize=78125 / crf_max=0.0 / nal_hrd=none / filler=0 / ip_ratio=1.40 / aq=1:1.00
Encoded date : UTC 2017-03-31 08:32:40
Tagged date : UTC 2017-03-31 11:26:48
Audio #1
ID : 2
Format : AAC
Format/Info : Advanced Audio Codec
Format profile : LC
Codec ID : 40
Duration : 1 h 42 min
Bit rate mode : Variable
Bit rate : 128 kb/s
Maximum bit rate : 135 kb/s
Channel(s) : 2 channels
Channel positions : Front: L R
Sampling rate : 48.0 kHz
Frame rate : 46.875 FPS (1024 spf)
Compression mode : Lossy
Stream size : 93.6 MiB (4%)
Title : Dub [License]
Language : Russian
Encoded date : UTC 2017-03-31 08:50:48
Tagged date : UTC 2017-03-31 11:26:48
Audio #2
ID : 3
Format : AAC
Format/Info : Advanced Audio Codec
Format profile : LC
Codec ID : 40
Duration : 1 h 42 min
Bit rate mode : Variable
Bit rate : 128 kb/s
Maximum bit rate : 135 kb/s
Channel(s) : 2 channels
Channel positions : Front: L R
Sampling rate : 48.0 kHz
Frame rate : 46.875 FPS (1024 spf)
Compression mode : Lossy
Stream size : 93.6 MiB (4%)
Title : Original
Language : English
Encoded date : UTC 2017-03-31 09:06:10
Tagged date : UTC 2017-03-31 11:26:48
Text #1
ID : 4
Format : Timed Text
Codec ID : tx3g
Duration : 1 h 15 min
Bit rate mode : Variable
Bit rate : 2 b/s
Stream size : 1.17 KiB (0%)
Title : Forced
Language : Russian
Forced : No
Encoded date : UTC 2017-03-31 11:26:48
Tagged date : UTC 2017-03-31 11:26:48
Text #2
ID : 5
Format : Timed Text
Codec ID : tx3g
Duration : 1 h 39 min
Bit rate mode : Variable
Bit rate : 88 b/s
Stream size : 64.2 KiB (0%)
Title : Full
Language : Russian
Forced : No
Encoded date : UTC 2017-03-31 11:26:48
Tagged date : UTC 2017-03-31 11:26:48
Text #3
ID : 6
Format : Timed Text
Codec ID : tx3g
Duration : 1 h 36 min
Bit rate mode : Variable
Bit rate : 58 b/s
Stream size : 40.9 KiB (0%)
Title : Full
Language : English
Forced : No
Encoded date : UTC 2017-03-31 11:26:48
Tagged date : UTC 2017-03-31 11:26:48
Menu
00:00:00.000 : 00:00:00.000
00:09:37.243 : 00:09:37.243
00:13:50.455 : 00:13:50.455
00:22:14.583 : 00:22:14.583
00:28:40.385 : 00:28:40.385
00:31:54.329 : 00:31:54.329
00:40:49.614 : 00:40:49.614
00:46:49.932 : 00:46:49.932
00:55:45.092 : 00:55:45.092
01:02:06.473 : 01:02:06.473
01:09:52.897 : 01:09:52.897
01:14:04.649 : 01:14:04.649
01:20:56.226 : 01:20:56.226
01:29:09.135 : 01:29:09.135
01:35:03.865 : 01:35:03.865
01:38:28.277 : 01:38:28.277



_________________
Проголосуй за трекер Открытый торрент трекер - RUS-MEDIA.ORG

Проголосуй Открытый торрент трекер - RUS-MEDIA.ORG


Вернуться к началу
 Профиль Отправить личное сообщение  
 
   Похожие торренты   Автор   Торрент   Размер 
В этой теме нет новых непрочитанных сообщений. Любой ценой / Hell or High Water ( драма, криминал, вестерн, 2016) BDRip 720p от HELLYWOOD | Лицензия, А

marya111

128 | 30

5.76 ГБ

В этой теме нет новых непрочитанных сообщений. Любой ценой / Hell or High Water ( драма, криминал, вестерн, 2016) BDRip | D, A | Лицензия

marya111

102 | 7

2.06 ГБ

В этой теме нет новых непрочитанных сообщений. Любой ценой / Hell or High Water (Драма, криминал, вестерн, 2016) BDRip-AVC от HQ-ViDEO | Лицензия

marya111

115 | 12

2.18 ГБ

В этой теме нет новых непрочитанных сообщений. Любой ценой / Hell or High Water [Драма, криминал, вестерн, 2016] Blu-Ray, Dub [Лицензия]

salma3

57 | 65

30.26 ГБ

В этой теме нет новых непрочитанных сообщений. Любой ценой / Hell or High Water [Драма, криминал, 2016] BDRip 720p, Dub [Лицензия]

salma3

332 | 187

6.95 ГБ

В этой теме нет новых непрочитанных сообщений. Любой ценой / Hell or High Water (драма, криминал, 2016) BDRip 720p от Scarabey | Лицензия

marya111

233 | 73

5.92 ГБ

В этой теме нет новых непрочитанных сообщений. Любой ценой / Hell or High Water [драма, криминал, 2016] BDRip-AVC, Dub [Лицензия]

salma3

296 | 78

1.46 ГБ


Начать новую тему Ответить на тему  [ 1 сообщение ] 




Для Мосгорсуда, Роскомнадзора и рекламодателей:: mosgorsud-torrent[собачка]yandex.ru
cron