Торрент файл
скачать торрент магнет ссылка Добавлен: 30 мар 2017, 11:18
Размер: 2.27 ГБ
Сидеров: 57
Личеров: 12
Автор

СообщениеДобавлено: 30 мар 2017, 11:18 

Не в сети
Супермодератор
Аватара пользователя
Дата регистрации:
15 фев 2012, 16:44
Возраст: 28
Спасибо: 7290 / 2147
Сообщения: 70562
Страна: США
Жанр: ужасы, триллер
Возраст: 18+
Режиссер: Шон Папазян

В ролях: Ричард Тиллман, Джесси Уорд, Грэхэм Норрис, Джои Мендицино, Джули Монд, Дайан Салинджер, Майкл Чилдерс, Гэри Энтин, Эдмунд Энтин, Мики Пост, Стив Рейлсбэк, Майкл Толанд, Келли Альбанезе, Шарон Сен Ина, Джина Фриччион, Адам Фридман, Уэс Робертсон

Описание фильма Остановка 2: Не оглядывайся назад (2008): После долгого отсутствия военный Том Хилтс возвращается в свой любимый дом в Техасе. У Тома есть брат по имени Джеймс. Он со своей подругой уехал в Калифорнию и пропал! И тогда Том решает со своими двумя друзьями отправится на поиски Джеймса и его подруги. Обнаружив следы брата, они останавливаются на обычной пустынной бензоколонке. Но вскоре понимают, что эта остановка изменит их планы по поиску брата.

Продолжительность: 01:29:02
Перевод: Профессиональный [двухголосый]
Оригинальная дорожка: нет
Автор рипа:
Качество видео: BDRip 720p Исходник: Blu-Ray Remux (1080p) Формат: mp4
Видео кодек: MPEG-4 AVC Аудио кодек: AAC
Видео: 1280x536 (2.40:1) at 23.976 fps, AVC at 3 513 kbps avg, 0.214 bit/pixel
Аудио №1 Rus: 48.0 KHz, AAC, 2 ch, 128.0 Kbps
Субтитры: нет
Навигация по главам: есть
Размер: 2.27 GiB
avs [info]: 1280x536p 1:1 @ 24000/1001 fps (cfr)
x264 [info]: using SAR=1/1
x264 [info]: using cpu capabilities: MMX2 SSE2Fast SSSE3 Cache64
x264 [info]: profile High, level 4.1
x264 [info]: frame I:832 Avg QP:17.28 size: 78788
x264 [info]: frame P:24991 Avg QP:20.52 size: 30164
x264 [info]: frame B:102266 Avg QP:21.99 size: 14926
x264 [info]: consecutive B-frames: 1.3% 1.2% 5.7% 13.5% 20.6% 38.6% 9.0% 5.3% 5.0%
x264 [info]: mb I I16..4: 7.8% 80.2% 12.0%
x264 [info]: mb P I16..4: 1.5% 14.8% 1.0% P16..4: 44.2% 20.2% 10.7% 0.0% 0.0% skip: 7.5%
x264 [info]: mb B I16..4: 0.1% 2.5% 0.1% B16..8: 44.1% 9.0% 2.1% direct: 7.9% skip:34.3% L0:44.4% L1:50.3% BI: 5.3%
x264 [info]: 8x8 transform intra:87.6% inter:72.9%
x264 [info]: coded y,uvDC,uvAC intra: 84.8% 71.1% 34.5% inter: 32.0% 26.6% 1.7%
x264 [info]: i16 v,h,dc,p: 31% 18% 5% 45%
x264 [info]: i8 v,h,dc,ddl,ddr,vr,hd,vl,hu: 13% 10% 30% 6% 9% 9% 7% 8% 7%
x264 [info]: i4 v,h,dc,ddl,ddr,vr,hd,vl,hu: 23% 15% 13% 7% 10% 11% 8% 7% 5%
x264 [info]: i8c dc,h,v,p: 57% 18% 18% 7%
x264 [info]: Weighted P-Frames: Y:4.1% UV:2.3%
x264 [info]: ref P L0: 44.7% 9.7% 18.3% 6.7% 5.6% 4.0% 3.6% 2.0% 1.9% 1.6% 1.7% 0.2% 0.0%
x264 [info]: ref B L0: 75.0% 10.9% 5.0% 2.7% 1.9% 1.6% 1.3% 0.8% 0.5% 0.2%
x264 [info]: ref B L1: 92.9% 7.1%
x264 [info]: kb/s:3512.72
encoded 128089 frames, 1.97 fps, 3512.72 kb/s
General
Format : MPEG-4
Format profile : Base Media
Codec ID : isom (isom)
File size : 2.27 GiB
Duration : 1 h 29 min
Overall bit rate mode : Variable
Overall bit rate : 3 648 kb/s
Movie name : Остановка 2: Не оглядывайся назад | KinoGadget
Performer : Шон Папазян
Director : Шон Папазян
Actor : Ричард Тиллман / Джесси Уорд / Грэхэм Норрис / Джои Мендицино / Джули Монд / Дайан Салинджер / Майкл Чилдерс / Гэри Энтин / Эдмунд Энтин / Мики Пост / Стив Рейлсбэк / Майкл Толанд / Келли Альбанезе / Шарон Сен Ина / Джина Фриччион / Адам Фридман / Уэс Робертсон
Screenplay by : Джон Шибан
Producer : Стив Экклсайн / Тони Крантц / Джон Шибан
Genre : Horror, Thriller
ContentType : Short Film
Recorded date : 2008
Encoded date : UTC 2017-02-13 06:30:22
Tagged date : UTC 2017-02-13 07:02:50
Cover : Yes
ContentRating : mpaa|R|400|
LongDeion : Капрал Том Хилтс после долгого отсутствия возвращается в родной Техас, чтобы отыскать своего брата Джеймса, который год назад поехал со своей подружкой в Калифорнию и не вернулся. Заручившись помощью пары друзей, Том отправляется с ними по следам брата, но остановка на самой обычной пустынной бензоколонке вскоре кардинально меняет планы всех троих.
HDVideo : Yes
Video
ID : 1
Format : AVC
Format/Info : Advanced Video Codec
Format profile : [email protected]
Format settings, CABAC : Yes
Format settings, ReFrames : 11 frames
Codec ID : avc1
Codec ID/Info : Advanced Video Coding
Duration : 1 h 29 min
Bit rate : 3 513 kb/s
Maximum bit rate : 23.3 Mb/s
Width : 1 280 pixels
Height : 536 pixels
Display aspect ratio : 2.40:1
Frame rate mode : Constant
Frame rate : 23.976 (24000/1001) FPS
Color space : YUV
Chroma subsampling : 4:2:0
Bit depth : 8 bits
Scan type : Progressive
Bits/(Pixel*Frame) : 0.214
Stream size : 2.18 GiB (96%)
Writing library : x264 core 148 r2638 7599210
Encoding settings : cabac=1 / ref=11 / deblock=1:-1:-1 / analyse=0x3:0x113 / me=umh / subme=7 / psy=1 / psy_rd=1.00:0.00 / mixed_ref=1 / me_range=32 / chroma_me=1 / trellis=2 / 8x8dct=1 / cqm=0 / deadzone=21,11 / fast_pskip=0 / chroma_qp_offset=-2 / threads=3 / lookahead_threads=1 / sliced_threads=0 / nr=0 / decimate=1 / interlaced=0 / bluray_compat=0 / constrained_intra=0 / bframes=8 / b_pyramid=2 / b_adapt=2 / b_bias=0 / direct=1 / weightb=1 / open_gop=0 / weightp=2 / keyint=250 / keyint_min=25 / scenecut=40 / intra_refresh=0 / rc_lookahead=60 / rc=crf / mbtree=1 / crf=20.0 / qcomp=0.60 / qpmin=0 / qpmax=69 / qpstep=4 / vbv_maxrate=62500 / vbv_bufsize=78125 / crf_max=0.0 / nal_hrd=none / filler=0 / ip_ratio=1.40 / aq=1:1.00
Encoded date : UTC 2017-02-13 03:36:39
Tagged date : UTC 2017-02-13 06:31:01
Audio
ID : 2
Format : AAC
Format/Info : Advanced Audio Codec
Format profile : LC
Codec ID : 40
Duration : 1 h 29 min
Bit rate mode : Variable
Bit rate : 128 kb/s
Maximum bit rate : 135 kb/s
Channel(s) : 2 channels
Channel positions : Front: L R
Sampling rate : 48.0 kHz
Frame rate : 46.875 FPS (1024 spf)
Compression mode : Lossy
Stream size : 81.5 MiB (4%)
Title : P2
Language : Russian
Encoded date : UTC 2017-02-13 03:39:13
Tagged date : UTC 2017-02-13 06:31:01
Menu
00:00:00.000 : 00:00:00.000
00:06:29.973 : 00:06:29.973
00:10:09.275 : 00:10:09.275
00:13:14.419 : 00:13:14.419
00:17:47.692 : 00:17:47.692
00:23:43.130 : 00:23:43.130
00:29:21.301 : 00:29:21.301
00:33:43.521 : 00:33:43.521
00:36:37.570 : 00:36:37.570
00:39:38.543 : 00:39:38.543
00:43:22.183 : 00:43:22.183
00:47:06.240 : 00:47:06.240
00:53:00.177 : 00:53:00.177
00:57:26.109 : 00:57:26.109
01:02:41.383 : 01:02:41.383
01:07:03.311 : 01:07:03.311
01:12:46.988 : 01:12:46.988
01:16:45.392 : 01:16:45.392
01:21:15.788 : 01:21:15.788
01:24:29.648 : 01:24:29.648



_________________
Проголосуй за трекер Открытый торрент трекер - RUS-MEDIA.ORG

Проголосуй Открытый торрент трекер - RUS-MEDIA.ORG


Вернуться к началу
 Профиль Отправить личное сообщение  
 
   Похожие торренты   Автор   Торрент   Размер 
В этой теме нет новых непрочитанных сообщений. Остановка / Rest Stop [ужасы, триллер, 2006] BDRip 720p, Dvo [iPad]

salma3

34 | 6

2.01 ГБ

В этой теме нет новых непрочитанных сообщений. Остановка / Rest Stop / Rest Stop: Dead Ahead [ужасы, триллер, 2006] BDRip, Mvo

salma3

21 | 3

1.45 ГБ

В этой теме нет новых непрочитанных сообщений. Смертельная остановка / Dead Stop [ужасы, 2011] WEBRip 720p, Avo

salma3

229 | 48

2.44 ГБ

В этой теме нет новых непрочитанных сообщений. Смертельная остановка / Dead Stop [ужасы, 2011] WEBRip, Avo

salma3

400 | 40

1.37 ГБ

В этой теме нет новых непрочитанных сообщений. Следующая остановка - Страна чудес / Next Stop Wonderland [Мелодрама, драма, комедия, 1998] WEB-DLRip 720p, Dvo

salma3

40 | 17

3.99 ГБ

В этой теме нет новых непрочитанных сообщений. Коллекционер / The Collector [ужасы, триллер, 2009] BDRip 720p, Dub [iPad]

salma3

0 | 0

1.9 ГБ

В этой теме нет новых непрочитанных сообщений. Клетка / The Cell [ужасы, фантастика, триллер, 2000] BDRip 720p, Dub [iPad]

salma3

13 | 2

2.27 ГБ


Начать новую тему Ответить на тему  [ 1 сообщение ] 




Для Мосгорсуда, Роскомнадзора и рекламодателей:: mosgorsud-torrent[собачка]yandex.ru
cron