Торрент файл
скачать торрент магнет ссылка Добавлен: 29 мар 2017, 11:23
Размер: 2.42 ГБ
Сидеров: 94
Личеров: 20
Автор

СообщениеДобавлено: 29 мар 2017, 11:23 

Не в сети
Супермодератор
Аватара пользователя
Дата регистрации:
15 фев 2012, 16:44
Возраст: 28
Спасибо: 7290 / 2147
Сообщения: 70396
Страна: Франция
Жанр: комедия, фантастика
Возраст: 12+
Режиссер: Жан-Мари Пуаре
В ролях: Кристиан Клавье, Жан Рено, Франк Дюбоск, Карин Вьяр, Сильви Тестю, Мари-Анн Шазель, Эри Абиттан, Алекс Лутс, Стефани де Крэенкур, Вероника Буланжер
Описание: В третьей части граф с оруженосцем отправляются в самое сложное для Франции время — период Французской революции.
Продолжительность: 01:49:29
Перевод: Дублированный [Лицензия]
Оригинальная дорожка: нет
Автор рипа:
Качество видео: BDRip 720p Исходник: Blu-Ray Remux (1080p) Формат: mp4
Видео кодек: MPEG-4 AVC Аудио кодек: AAC
Видео: 1280x536 (2.40:1) at 24.000 fps, AVC at 3 022 kbps avg, 0.184 bit/pixel
Аудио №1 Rus: 48.0 KHz, AAC, 2 ch, 128.0 Kbps
Субтитры: нет
Навигация по главам: есть
Размер: 2.42 GiB
avs [info]: 1280x536p 1:1 @ 24/1 fps (cfr)
x264 [info]: using SAR=1/1
x264 [info]: using cpu capabilities: MMX2 SSE2Fast SSSE3 Cache64
x264 [info]: profile High, level 4.1
x264 [info]: frame I:2795 Avg QP:15.76 size:119936
x264 [info]: frame P:32003 Avg QP:19.45 size: 32930
x264 [info]: frame B:122873 Avg QP:21.85 size: 8894
x264 [info]: consecutive B-frames: 2.5% 1.3% 6.0% 17.3% 17.3% 49.9% 5.7%
x264 [info]: mb I I16..4: 6.7% 72.8% 20.5%
x264 [info]: mb P I16..4: 1.4% 8.5% 1.5% P16..4: 42.5% 23.7% 14.8% 0.0% 0.0% skip: 7.6%
x264 [info]: mb B I16..4: 0.1% 0.7% 0.2% B16..8: 41.6% 8.5% 2.6% direct: 4.5% skip:41.9% L0:45.6% L1:46.3% BI: 8.1%
x264 [info]: 8x8 transform intra:73.9% inter:63.2%
x264 [info]: coded y,uvDC,uvAC intra: 84.9% 85.2% 60.8% inter: 21.0% 23.8% 2.1%
x264 [info]: i16 v,h,dc,p: 48% 12% 8% 31%
x264 [info]: i8 v,h,dc,ddl,ddr,vr,hd,vl,hu: 14% 7% 7% 10% 14% 14% 12% 11% 11%
x264 [info]: i4 v,h,dc,ddl,ddr,vr,hd,vl,hu: 14% 6% 4% 10% 15% 15% 13% 12% 12%
x264 [info]: i8c dc,h,v,p: 39% 20% 24% 18%
x264 [info]: Weighted P-Frames: Y:3.8% UV:1.7%
x264 [info]: ref P L0: 50.2% 12.1% 16.9% 6.8% 5.0% 3.7% 3.1% 2.1% 0.2% 0.0%
x264 [info]: ref B L0: 77.2% 11.0% 5.5% 2.7% 2.0% 1.0% 0.5%
x264 [info]: ref B L1: 93.2% 6.8%
x264 [info]: kb/s:3022.29
encoded 157671 frames, 2.18 fps, 3022.29 kb/s

General
Complete name : ...Prishelcy_3_vzyatie_bastilii_2016_KinoGadget.mp4
Format : MPEG-4
Format profile : Base Media
Codec ID : isom (isom)
File size : 2.42 GiB
Duration : 1 h 49 min
Overall bit rate mode : Variable
Overall bit rate : 3 158 kb/s
Movie name : Пришельцы 3: Взятие Бастилии | KinoGadget
Performer : Жан-Мари Пуаре
Director : Жан-Мари Пуаре
Actor : Кристиан Клавье / Жан Рено / Франк Дюбоск / Карин Вьяр / Сильви Тестю / Мари-Анн Шазель / Эри Абиттан / Алекс Лутс / Стефани де Крэенкур / Вероника Буланжер
Screenplay by : Кристиан Клавье / Жан-Мари Пуаре
Producer : Сидони Дюма / Жан-Мари Пуаре / Дэвид Клейкенс
Genre : Comedy
ContentType : Short Film
Recorded date : 2016
Encoded date : UTC 2017-02-17 13:06:19
Tagged date : UTC 2017-02-18 06:53:16
Cover : Yes
ContentRating : mpaa|PG-13|300|
LongDeion : В третьей части граф с оруженосцем отправляются в самое сложное для Франции время — период Французской революции.
HDVideo : Yes
Video
ID : 1
Format : AVC
Format/Info : Advanced Video Codec
Format profile : [email protected]
Format settings, CABAC : Yes
Format settings, ReFrames : 8 frames
Codec ID : avc1
Codec ID/Info : Advanced Video Coding
Duration : 1 h 49 min
Bit rate : 3 022 kb/s
Maximum bit rate : 21.5 Mb/s
Width : 1 280 pixels
Height : 536 pixels
Display aspect ratio : 2.40:1
Frame rate mode : Constant
Frame rate : 24.000 FPS
Color space : YUV
Chroma subsampling : 4:2:0
Bit depth : 8 bits
Scan type : Progressive
Bits/(Pixel*Frame) : 0.184
Stream size : 2.31 GiB (96%)
Writing library : x264 core 148 r2638 7599210
Encoding settings : cabac=1 / ref=8 / deblock=1:-1:-1 / analyse=0x3:0x113 / me=umh / subme=9 / psy=1 / psy_rd=1.00:0.00 / mixed_ref=1 / me_range=32 / chroma_me=1 / trellis=2 / 8x8dct=1 / cqm=0 / deadzone=21,11 / fast_pskip=0 / chroma_qp_offset=-2 / threads=3 / lookahead_threads=1 / sliced_threads=0 / nr=0 / decimate=1 / interlaced=0 / bluray_compat=0 / constrained_intra=0 / bframes=6 / b_pyramid=2 / b_adapt=2 / b_bias=0 / direct=1 / weightb=1 / open_gop=0 / weightp=2 / keyint=250 / keyint_min=25 / scenecut=40 / intra_refresh=0 / rc_lookahead=60 / rc=crf / mbtree=1 / crf=19.0 / qcomp=0.60 / qpmin=0 / qpmax=69 / qpstep=4 / vbv_maxrate=62500 / vbv_bufsize=78125 / crf_max=0.0 / nal_hrd=none / filler=0 / ip_ratio=1.40 / aq=1:1.00
Encoded date : UTC 2017-02-17 05:49:39
Tagged date : UTC 2017-02-17 13:07:17
Audio
ID : 2
Format : AAC
Format/Info : Advanced Audio Codec
Format profile : LC
Codec ID : 40
Duration : 1 h 49 min
Bit rate mode : Variable
Bit rate : 128 kb/s
Maximum bit rate : 135 kb/s
Channel(s) : 2 channels
Channel positions : Front: L R
Sampling rate : 48.0 kHz
Frame rate : 46.875 FPS (1024 spf)
Compression mode : Lossy
Stream size : 100 MiB (4%)
Title : Dub [License]
Language : Russian
Encoded date : UTC 2017-02-17 06:09:31
Tagged date : UTC 2017-02-17 13:07:17
Menu
00:00:00.000 : Chapter 1
00:11:30.208 : Chapter 2
00:18:02.250 : Chapter 3
00:27:02.791 : Chapter 4
00:36:10.708 : Chapter 5
00:40:20.875 : Chapter 6
00:52:28.208 : Chapter 7
00:57:19.208 : Chapter 8
01:07:22.041 : Chapter 9
01:23:56.666 : Chapter 10
01:36:39.750 : Chapter 11
01:44:40.541 : Chapter 12




_________________
Проголосуй за трекер Открытый торрент трекер - RUS-MEDIA.ORG

Проголосуй Открытый торрент трекер - RUS-MEDIA.ORG


Вернуться к началу
 Профиль Отправить личное сообщение  
 
   Похожие торренты   Автор   Торрент   Размер 
В этой теме нет новых непрочитанных сообщений. Пришельцы 3: Взятие Бастилии / Les Visiteurs: La Révolution [комедия, 2016] BDRip 720p, Dub [Лицензия]

salma3

24 | 129

8.06 ГБ

В этой теме нет новых непрочитанных сообщений. Пришельцы 3: Взятие Бастилии / Les Visiteurs: La Révolution [комедия, 2016] BDRip 1080p, Dub [Лицензия]

salma3

20 | 147

16.66 ГБ

В этой теме нет новых непрочитанных сообщений. Пришельцы 3: Взятие Бастилии / Les Visiteurs: La Révolution [Комедия, 2016] BDRip 720p, Dub [iTunes]

marya111

68 | 8

4.66 ГБ

В этой теме нет новых непрочитанных сообщений. Пришельцы 3: Взятие Бастилии / Les Visiteurs: La Révolution ( комедия, фантастика, 2016) BDRip-AVC от HELLYWOOD | iTunes

marya111

280 | 37

1.46 ГБ

В этой теме нет новых непрочитанных сообщений. Пришельцы 3: Взятие Бастилии / Les Visiteurs: La Révolution [комедия, 2016] HDRip, Dub [Лицензия]

salma3

579 | 260

1.46 ГБ

В этой теме нет новых непрочитанных сообщений. Пришельцы 3: Взятие Бастилии / Les Visiteurs: La Révolution [Комедия, 2016] BDRip 1080p, Dub [iTunes]

marya111

163 | 8

7.95 ГБ

В этой теме нет новых непрочитанных сообщений. Пришельцы 3: Взятие Бастилии / Les Visiteurs: La Revolution (Комедия, 2016) BDRemux 1080p от ExKinoRay | FRE Transfer | Лицензия

marya111

47 | 37

29.15 ГБ


Начать новую тему Ответить на тему  [ 1 сообщение ] 




Для Мосгорсуда, Роскомнадзора и рекламодателей:: mosgorsud-torrent[собачка]yandex.ru
cron