Торрент файл
скачать торрент магнет ссылка Добавлен: 28 мар 2017, 11:28
Размер: 2.01 ГБ
Сидеров: 34
Личеров: 6
Автор

СообщениеДобавлено: 28 мар 2017, 11:28 

Не в сети
Супермодератор
Аватара пользователя
Дата регистрации:
15 фев 2012, 16:44
Возраст: 28
Спасибо: 7199 / 2147
Сообщения: 64757
Страна: США
Жанр: ужасы, триллер
Возраст: 18+
Режиссер: Джон Шибан
В ролях: Джейми Александер, Джои Мендицино, Дианна Руссо, Дайан Салинджер, Кертис Тейлор, Джозеф Лоуренс, Гэри Энтин, Эдмунд Энтин, Дженнифер Кормак, Мики Пост, Майкл Чилдерс, Ник Орефиче
Описание фильма Остановка (2006): Главная героиня фильма Николь Кэрроу путешествует со своим другом по Америке. В штате Техас они решили немного отдохнуть и сделать остановку. После того как Николь сделала все свои дела, вернулась к месту остановки и не обнаружила ни своего друга ни машины. После этого молодую девушку начинает преследовать маньяк...
Продолжительность: 01:25:18
Перевод: Профессиональный двухголосый
Оригинальная дорожка: нет
Автор рипа:
Качество видео: BDRip 720p Исходник: Blu-Ray Remux (1080p) Формат: mp4
Видео кодек: MPEG-4 AVC Аудио кодек: AAC
Видео: 1280x720 (16:9) at 23.976 fps, AVC at 3 238 kbps avg, 0.147 bit/pixel
Аудио №1 Rus: 48.0 KHz, AAC, 2 ch, 128.0 Kbps
Субтитры: нет
Навигация по главам: есть
Размер: 2.01 GiB
avs [info]: 1280x720p 1:1 @ 24000/1001 fps (cfr)
x264 [info]: using SAR=1/1
x264 [info]: using cpu capabilities: MMX2 SSE2Fast SSSE3 Cache64
x264 [info]: profile High, level 4.1
x264 [info]: frame I:743 Avg QP:17.05 size: 75859
x264 [info]: frame P:24380 Avg QP:20.39 size: 28412
x264 [info]: frame B:97592 Avg QP:21.78 size: 13552
x264 [info]: consecutive B-frames: 1.0% 1.4% 3.9% 21.6% 12.8% 49.6% 3.8% 3.2% 0.6% 1.3% 0.7%
x264 [info]: mb I I16..4: 11.0% 79.5% 9.5%
x264 [info]: mb P I16..4: 2.9% 12.9% 0.8% P16..4: 47.5% 17.5% 8.9% 0.0% 0.0% skip: 9.5%
x264 [info]: mb B I16..4: 0.2% 1.3% 0.1% B16..8: 43.4% 8.1% 1.6% direct: 7.6% skip:37.7% L0:46.1% L1:49.6% BI: 4.3%
x264 [info]: 8x8 transform intra:79.6% inter:74.9%
x264 [info]: coded y,uvDC,uvAC intra: 72.6% 72.2% 34.3% inter: 27.0% 27.5% 1.2%
x264 [info]: i16 v,h,dc,p: 49% 14% 8% 30%
x264 [info]: i8 v,h,dc,ddl,ddr,vr,hd,vl,hu: 7% 6% 8% 11% 16% 14% 15% 11% 12%
x264 [info]: i4 v,h,dc,ddl,ddr,vr,hd,vl,hu: 8% 6% 3% 11% 17% 15% 16% 11% 13%
x264 [info]: i8c dc,h,v,p: 37% 26% 19% 18%
x264 [info]: Weighted P-Frames: Y:3.6% UV:2.7%
x264 [info]: ref P L0: 44.1% 8.3% 19.3% 7.7% 6.3% 5.1% 4.2% 2.5% 2.4% 0.2% 0.0%
x264 [info]: ref B L0: 76.6% 10.6% 5.2% 2.7% 2.0% 1.6% 1.0% 0.3%
x264 [info]: ref B L1: 93.8% 6.2%
x264 [info]: kb/s:3237.99
encoded 122715 frames, 1.35 fps, 3237.99 kb/s

General
Format : MPEG-4
Format profile : Base Media
Codec ID : isom (isom)
File size : 2.01 GiB
Duration : 1 h 25 min
Overall bit rate mode : Variable
Overall bit rate : 3 374 kb/s
Movie name : Остановка | KinoGadget
Performer : Джон Шибан
Director : Джон Шибан
Actor : Джейми Александер / Джои Мендицино / Дианна Руссо / Дайан Салинджер / Кертис Тейлор / Джозеф Лоуренс / Гэри Энтин / Эдмунд Энтин / Дженнифер Кормак / Мики Пост / Майкл Чилдерс / Ник Орефиче
Screenplay by : Джон Шибан
Producer : Тони Крантц / Дэниэл Мирик / Шон Папазян
Genre : Horror, Thriller
ContentType : Short Film
Recorded date : 2006
Encoded date : UTC 2017-02-21 06:59:32
Tagged date : UTC 2017-02-21 07:03:40
Cover : Yes
ContentRating : mpaa|R|400|
LongDeion : Двое молодых людей во время поездке из Техаса в Калифорнию останавливаются передохнуть и сделать свои дела. Когда Николь возвращается к месту остановки, ни ее друга, ни автомобиля нет на месте. / / И тут, как водится, появляется психопат на желтом грузовике и начинается игра в кошки-мышки. Задача проста — Николь в течение ночи должна найти и спасти своего приятеля и к тому же остаться в живых…
HDVideo : Yes
Video
ID : 1
Format : AVC
Format/Info : Advanced Video Codec
Format profile : [email protected]
Format settings, CABAC : Yes
Format settings, ReFrames : 9 frames
Codec ID : avc1
Codec ID/Info : Advanced Video Coding
Duration : 1 h 25 min
Bit rate : 3 238 kb/s
Maximum bit rate : 14.8 Mb/s
Width : 1 280 pixels
Height : 720 pixels
Display aspect ratio : 16:9
Frame rate mode : Constant
Frame rate : 23.976 (24000/1001) FPS
Color space : YUV
Chroma subsampling : 4:2:0
Bit depth : 8 bits
Scan type : Progressive
Bits/(Pixel*Frame) : 0.147
Stream size : 1.93 GiB (96%)
Writing library : x264 core 148 r2638 7599210
Encoding settings : cabac=1 / ref=9 / deblock=1:-2:-1 / analyse=0x3:0x113 / me=umh / subme=9 / psy=1 / psy_rd=1.00:0.00 / mixed_ref=1 / me_range=32 / chroma_me=1 / trellis=2 / 8x8dct=1 / cqm=0 / deadzone=21,11 / fast_pskip=0 / chroma_qp_offset=-2 / threads=3 / lookahead_threads=1 / sliced_threads=0 / nr=0 / decimate=1 / interlaced=0 / bluray_compat=0 / constrained_intra=0 / bframes=10 / b_pyramid=2 / b_adapt=2 / b_bias=0 / direct=1 / weightb=1 / open_gop=0 / weightp=2 / keyint=250 / keyint_min=25 / scenecut=40 / intra_refresh=0 / rc_lookahead=60 / rc=crf / mbtree=1 / crf=20.5 / qcomp=0.60 / qpmin=0 / qpmax=69 / qpstep=4 / vbv_maxrate=62500 / vbv_bufsize=78125 / crf_max=0.0 / nal_hrd=none / filler=0 / ip_ratio=1.40 / aq=1:1.00
Encoded date : UTC 2017-02-20 22:01:54
Tagged date : UTC 2017-02-21 07:00:14
Audio
ID : 2
Format : AAC
Format/Info : Advanced Audio Codec
Format profile : LC
Codec ID : 40
Duration : 1 h 25 min
Bit rate mode : Variable
Bit rate : 128 kb/s
Maximum bit rate : 135 kb/s
Channel(s) : 2 channels
Channel positions : Front: L R
Sampling rate : 48.0 kHz
Frame rate : 46.875 FPS (1024 spf)
Compression mode : Lossy
Stream size : 78.1 MiB (4%)
Title : P2
Language : Russian
Encoded date : UTC 2017-02-20 22:08:37
Tagged date : UTC 2017-02-21 07:00:14
Menu
00:00:00.000 : 00:00:00.000
00:01:56.283 : 00:01:56.283
00:07:42.295 : 00:07:42.295
00:10:16.449 : 00:10:16.449
00:15:40.481 : 00:15:40.481
00:18:33.821 : 00:18:33.821
00:23:58.771 : 00:23:58.771
00:30:02.259 : 00:30:02.259
00:34:45.000 : 00:34:45.000
00:39:45.049 : 00:39:45.049
00:41:52.176 : 00:41:52.176
00:46:27.076 : 00:46:27.076
00:51:07.439 : 00:51:07.439
00:57:18.644 : 00:57:18.644
01:00:06.686 : 01:00:06.686
01:04:57.894 : 01:04:57.894
01:10:12.041 : 01:10:12.041
01:14:16.994 : 01:14:16.994
01:17:57.506 : 01:17:57.506
01:21:32.137 : 01:21:32.137




_________________
Проголосуй за трекер Открытый торрент трекер - RUS-MEDIA.ORG

Проголосуй Открытый торрент трекер - RUS-MEDIA.ORG


Вернуться к началу
 Профиль Отправить личное сообщение  
 
   Похожие торренты   Автор   Торрент   Размер 
В этой теме нет новых непрочитанных сообщений. Остановка / Rest Stop / Rest Stop: Dead Ahead [ужасы, триллер, 2006] BDRip, Mvo

salma3

21 | 3

1.45 ГБ

В этой теме нет новых непрочитанных сообщений. Остановка 2: Не оглядывайся назад / Rest Stop: Don't Look Back [ужасы, триллер, 2008] BDRip 720p, Dvo [iPad]

salma3

57 | 12

2.27 ГБ

В этой теме нет новых непрочитанных сообщений. Смертельная остановка / Dead Stop [ужасы, 2011] WEBRip 720p, Avo

salma3

229 | 48

2.44 ГБ

В этой теме нет новых непрочитанных сообщений. Смертельная остановка / Dead Stop [ужасы, 2011] WEBRip, Avo

salma3

400 | 40

1.37 ГБ

В этой теме нет новых непрочитанных сообщений. Следующая остановка - Страна чудес / Next Stop Wonderland [Мелодрама, драма, комедия, 1998] WEB-DLRip 720p, Dvo

salma3

40 | 17

3.99 ГБ

В этой теме нет новых непрочитанных сообщений. Коллекционер / The Collector [ужасы, триллер, 2009] BDRip 720p, Dub [iPad]

salma3

0 | 0

1.9 ГБ

В этой теме нет новых непрочитанных сообщений. Коллекционер 2 / The Collection [ужасы, боевик, триллер, 2012] BDRip 720p, Dub [iPad]

salma3

0 | 0

1.73 ГБ


Начать новую тему Ответить на тему  [ 1 сообщение ] 




Для Мосгорсуда, Роскомнадзора и рекламодателей:: mosgorsud-torrent[собачка]yandex.ru
cron