Торрент файл
скачать торрент магнет ссылка Добавлен: 27 мар 2017, 11:16
Размер: 2.49 ГБ
Сидеров: 0
Личеров: 0
Автор

СообщениеДобавлено: 27 мар 2017, 11:16 

Не в сети
Супермодератор
Аватара пользователя
Дата регистрации:
15 фев 2012, 16:44
Возраст: 28
Спасибо: 7205 / 2147
Сообщения: 65334
Страна: США, Канада, Италия
Жанр: ужасы, боевик, триллер
Возраст: 18+
Режиссер: Ронни Ю
В ролях: Роберт Инглунд, Кен Кирзингер, Моника Кина, Джейсон Риттер, Келли Роулэнд, Крис Маркетт, Брендан Флетчер, Кэтрин Изабель, Локлин Манро, Кайл Лэбин
Описание: Фредди Крюгер доведен до отчаяния: он больше не может убивать. Лишь используя неуклюжего серийного убийцу Джейсона Вурхиса, Фредди удается истреблять детей с улицы Вязов. Но когда Джейсон начинает понимать, что им попросту манипулируют, планы Фредди готовы рухнуть.
Теперь дело за тинейджерами Уиллом, Лори и Кией. Каким-то образом им надо заставить Джейсона раз и навсегда убить Фредди Крюгера.

Продолжительность: 01:37:20
Перевод: Дублированный
Оригинальная дорожка: есть
Автор рипа:
Качество видео: BDRip 720p Исходник: Blu-Ray Remux (1080p) Формат: mp4
Видео кодек: MPEG-4 AVC Аудио кодек: AAC
Видео: 1280x544 (2.35:1) at 23.976 fps, AVC at 3 391 kbps avg, 0.203 bit/pixel
Аудио №1 Rus: 48.0 KHz, AAC, 2 ch, 128.0 Kbps
Аудио №2 Eng: 48.0 KHz, AAC, 2 ch, 128.0 Kbps
Субтитры: русские (полные), английские (полные)
Навигация по главам: есть
Размер: 2.49 GiB
avs [info]: 1280x544p 1:1 @ 24000/1001 fps (cfr)
x264 [info]: using SAR=1/1
x264 [info]: using cpu capabilities: MMX2 SSE2Fast SSSE3 Cache64
x264 [info]: profile High, level 4.1
x264 [info]: frame I:1132 Avg QP:15.71 size: 94053
x264 [info]: frame P:28865 Avg QP:19.24 size: 32380
x264 [info]: frame B:110026 Avg QP:21.24 size: 13038
x264 [info]: consecutive B-frames: 2.3% 2.1% 5.1% 18.8% 14.0% 41.5% 6.5% 3.7% 2.0% 1.9% 1.1% 1.0%
x264 [info]: mb I I16..4: 6.4% 78.2% 15.4%
x264 [info]: mb P I16..4: 2.3% 13.7% 1.4% P16..4: 40.3% 21.4% 13.0% 0.0% 0.0% skip: 7.8%
x264 [info]: mb B I16..4: 0.1% 1.5% 0.2% B16..8: 42.5% 9.4% 2.3% direct: 7.0% skip:36.8% L0:45.1% L1:47.4% BI: 7.5%
x264 [info]: 8x8 transform intra:79.2% inter:68.6%
x264 [info]: coded y,uvDC,uvAC intra: 77.0% 85.4% 61.7% inter: 27.4% 33.8% 5.2%
x264 [info]: i16 v,h,dc,p: 53% 14% 8% 24%
x264 [info]: i8 v,h,dc,ddl,ddr,vr,hd,vl,hu: 15% 10% 29% 6% 8% 9% 7% 8% 7%
x264 [info]: i4 v,h,dc,ddl,ddr,vr,hd,vl,hu: 23% 14% 15% 7% 10% 10% 8% 7% 6%
x264 [info]: i8c dc,h,v,p: 51% 17% 21% 11%
x264 [info]: Weighted P-Frames: Y:7.2% UV:4.8%
x264 [info]: ref P L0: 44.8% 9.9% 18.0% 7.8% 6.0% 4.6% 3.9% 2.4% 2.2% 0.4% 0.0%
x264 [info]: ref B L0: 71.2% 12.6% 6.7% 3.4% 2.5% 2.1% 1.1% 0.4%
x264 [info]: ref B L1: 91.6% 8.4%
x264 [info]: kb/s:3391.21
encoded 140023 frames, 1.84 fps, 3391.21 kb/s

General
Complete name : ...Freddi_protiv_dzhejsona_2003_KinoGadget.mp4
Format : MPEG-4
Format profile : Base Media
Codec ID : isom (isom)
File size : 2.49 GiB
Duration : 1 h 37 min
Overall bit rate mode : Variable
Overall bit rate : 3 659 kb/s
Movie name : Фредди против Джейсона | KinoGadget
Performer : Ронни Ю
Director : Ронни Ю
Actor : Роберт Инглунд / Кен Кирзингер / Моника Кина / Джейсон Риттер / Келли Роулэнд / Крис Маркетт / Брендан Флетчер / Кэтрин Изабель / Локлин Манро / Кайл Лэбин
Screenplay by : Дэмиэн Шеннон / Марк Свифт / Уэс Крэйвен
Producer : Шон С. Каннингэм / Стоукли Чаффин / Дуглас Кертис
Genre : Action, Horror, Thriller
ContentType : Short Film
Recorded date : 2003
Encoded date : UTC 2017-03-26 06:49:51
Tagged date : UTC 2017-03-26 06:58:07
Cover : Yes
ContentRating : mpaa|R|400|
LongDeion : Фредди Крюгер доведен до отчаяния: он больше не может убивать. Лишь используя неуклюжего серийного убийцу Джейсона Вурхиса, Фредди удается истреблять детей с улицы Вязов. Но когда Джейсон начинает понимать, что им попросту манипулируют, планы Фредди готовы рухнуть. / / Теперь дело за тинейджерами Уиллом, Лори и Кией. Каким-то образом им надо заставить Джейсона раз и навсегда убить Фредди Крюгера.
HDVideo : Yes
Video
ID : 1
Format : AVC
Format/Info : Advanced Video Codec
Format profile : [email protected]
Format settings, CABAC : Yes
Format settings, ReFrames : 9 frames
Codec ID : avc1
Codec ID/Info : Advanced Video Coding
Duration : 1 h 37 min
Bit rate : 3 391 kb/s
Maximum bit rate : 25.4 Mb/s
Width : 1 280 pixels
Height : 544 pixels
Display aspect ratio : 2.35:1
Frame rate mode : Constant
Frame rate : 23.976 (24000/1001) FPS
Color space : YUV
Chroma subsampling : 4:2:0
Bit depth : 8 bits
Scan type : Progressive
Bits/(Pixel*Frame) : 0.203
Stream size : 2.31 GiB (93%)
Writing library : x264 core 148 r2638 7599210
Encoding settings : cabac=1 / ref=9 / deblock=1:-2:-1 / analyse=0x3:0x113 / me=umh / subme=7 / psy=1 / psy_rd=1.00:0.00 / mixed_ref=1 / me_range=32 / chroma_me=1 / trellis=2 / 8x8dct=1 / cqm=0 / deadzone=21,11 / fast_pskip=0 / chroma_qp_offset=-2 / threads=3 / lookahead_threads=1 / sliced_threads=0 / nr=0 / decimate=1 / interlaced=0 / bluray_compat=0 / constrained_intra=0 / bframes=11 / b_pyramid=2 / b_adapt=2 / b_bias=0 / direct=1 / weightb=1 / open_gop=0 / weightp=2 / keyint=250 / keyint_min=25 / scenecut=40 / intra_refresh=0 / rc_lookahead=60 / rc=crf / mbtree=1 / crf=19.0 / qcomp=0.60 / qpmin=0 / qpmax=69 / qpstep=4 / vbv_maxrate=62500 / vbv_bufsize=78125 / crf_max=0.0 / nal_hrd=none / filler=0 / ip_ratio=1.40 / aq=1:1.00
Encoded date : UTC 2017-03-25 06:28:02
Tagged date : UTC 2017-03-26 06:50:58
Audio #1
ID : 2
Format : AAC
Format/Info : Advanced Audio Codec
Format profile : LC
Codec ID : 40
Duration : 1 h 37 min
Bit rate mode : Variable
Bit rate : 128 kb/s
Maximum bit rate : 135 kb/s
Channel(s) : 2 channels
Channel positions : Front: L R
Sampling rate : 48.0 kHz
Frame rate : 46.875 FPS (1024 spf)
Compression mode : Lossy
Stream size : 89.1 MiB (3%)
Title : Dub
Language : Russian
Encoded date : UTC 2017-03-25 06:32:00
Tagged date : UTC 2017-03-26 06:50:58
Audio #2
ID : 3
Format : AAC
Format/Info : Advanced Audio Codec
Format profile : LC
Codec ID : 40
Duration : 1 h 37 min
Bit rate mode : Variable
Bit rate : 128 kb/s
Maximum bit rate : 135 kb/s
Channel(s) : 2 channels
Channel positions : Front: L R
Sampling rate : 48.0 kHz
Frame rate : 46.875 FPS (1024 spf)
Compression mode : Lossy
Stream size : 89.1 MiB (3%)
Title : Original
Language : English
Encoded date : UTC 2017-03-25 06:42:29
Tagged date : UTC 2017-03-26 06:50:58
Text #1
ID : 4
Format : Timed Text
Codec ID : tx3g
Duration : 1 h 32 min
Bit rate mode : Variable
Bit rate : 74 b/s
Stream size : 49.7 KiB (0%)
Title : Full
Language : Russian
Forced : No
Encoded date : UTC 2017-03-26 06:50:57
Tagged date : UTC 2017-03-26 06:50:58
Text #2
ID : 5
Format : Timed Text
Codec ID : tx3g
Duration : 1 h 30 min
Bit rate mode : Variable
Bit rate : 46 b/s
Stream size : 30.6 KiB (0%)
Title : Full
Language : English
Forced : No
Encoded date : UTC 2017-03-26 06:50:58
Tagged date : UTC 2017-03-26 06:50:58
Menu
00:00:00.000 : 00:00:00.000
00:02:56.176 : 00:02:56.176
00:06:37.105 : 00:06:37.105
00:14:42.048 : 00:14:42.048
00:20:32.106 : 00:20:32.106
00:23:56.685 : 00:23:56.685
00:33:25.712 : 00:33:25.712
00:43:58.803 : 00:43:58.803
00:48:52.972 : 00:48:52.972
00:52:14.757 : 00:52:14.757
00:57:52.427 : 00:57:52.427
01:04:04.257 : 01:04:04.257
01:07:46.187 : 01:07:46.187
01:17:09.667 : 01:17:09.667
01:21:04.777 : 01:21:04.777
01:26:43.615 : 01:26:43.615
01:30:14.409 : 01:30:14.409




_________________
Проголосуй за трекер Открытый торрент трекер - RUS-MEDIA.ORG

Проголосуй Открытый торрент трекер - RUS-MEDIA.ORG


Вернуться к началу
 Профиль Отправить личное сообщение  
 
   Похожие торренты   Автор   Торрент   Размер 
В этой теме нет новых непрочитанных сообщений. Фредди против Джейсона / Freddy vs. Jason [ужасы, боевик, триллер, 2003] BDRip-HEVC 1080p, Dub

salma3

0 | 0

5.48 ГБ

В этой теме нет новых непрочитанных сообщений. Кошмар на улице Вязов 6: Фредди мертв / Freddy's Dead: The Final Nightmare [ужасы, 1991] BDRip-HEVC 1080p, Mvo

salma3

0 | 0

5.81 ГБ

В этой теме нет новых непрочитанных сообщений. Коллекционер 2 / The Collection [ужасы, боевик, триллер, 2012] BDRip 720p, Dub [iPad]

salma3

0 | 0

1.73 ГБ

В этой теме нет новых непрочитанных сообщений. Поворот не туда / Wrong Turn [ужасы, 2003] BDRip 720p, Dub [iPad]

salma3

0 | 0

1.93 ГБ

В этой теме нет новых непрочитанных сообщений. Лирика Джейсона / Узы братства / Jason's Lyric [драма, криминал, 1994] HDTVRip, Dvo [НТВ+]

salma3

0 | 0

1.45 ГБ

В этой теме нет новых непрочитанных сообщений. Мега Акула против Колосса / Mega Shark vs. Kolossus (Кристофер Рэй) [2015, ужасы, фантастика, боевик, триллер, BDRip 720p] avo

Nickolas3435

217 | 13

3.68 ГБ

В этой теме нет новых непрочитанных сообщений. Джейсон Вурхиз против Майкла Майерса / Jason Voorhees vs. Michael Myers (Трент Дункан) [2015, Короткометражный, Ужасы, Триллер, WEBRip-AVC | Яроцкий] avo

Dracon

172 | 3

151.53 МБ


Начать новую тему Ответить на тему  [ 1 сообщение ] 




Для Мосгорсуда, Роскомнадзора и рекламодателей:: mosgorsud-torrent[собачка]yandex.ru
cron