Торрент файл
скачать торрент магнет ссылка Добавлен: 26 мар 2017, 14:19
Размер: 2.12 ГБ
Сидеров: 97
Личеров: 14
Автор

СообщениеДобавлено: 26 мар 2017, 14:19 

Не в сети
Супермодератор
Аватара пользователя
Дата регистрации:
15 фев 2012, 16:44
Возраст: 28
Спасибо: 7290 / 2147
Сообщения: 70823
Страна: США
Жанр: фантастика, драма, мелодрама, приключения
Возраст: 16+
Режиссер: Мортен Тильдум
В ролях: Дженнифер Лоуренс, Крис Прэтт, Майкл Шин, Лоуренс Фишборн, Энди Гарсиа, Винс Фостер, Кара Мишель Уайлдер, Конор Брофи, Джули Серда, Аврора Перрино
Описание: Космический корабль с 5 000 пассажирами на борту, погруженных на время полета в искусственный сон, держит курс на планету, которая станет для них новым домом. Всё идет по плану, но из-за сбоя системы двое пассажиров неожиданно просыпаются и понимают, что до конечного пункта путешествия 90 лет пути, и им суждено остаток жизни провести вдвоем в роскошных интерьерах корабля, оснащенного по последнему слову техники. Постепенно Джима и Аврору начинает непреодолимо тянуть друг к другу, но корабль попадает в беду, и теперь в их руках — жизнь и судьба всех обитателей корабля.
Продолжительность: 01:56:11
Перевод: Дублированный [Лицензия]
Оригинальная дорожка: есть
Автор рипа:
Качество видео: BDRip 720p Исходник: Blu-Ray Remux (1080p) Формат: mp4
Видео кодек: MPEG-4 AVC Аудио кодек: AAC
Видео: 1280x536 (2.40:1) at 23.976 fps, AVC at 2 216 kbps avg, 0.135 bit/pixel
Аудио №1 Rus: 48.0 KHz, AAC, 2 ch, 128.0 Kbps
Аудио №2 Ukr: 48.0 KHz, AAC, 2 ch, 128.0 Kbps
Аудио №3 Eng: 48.0 KHz, AAC, 2 ch, 128.0 Kbps
Субтитры: русские (форсированные, полные), украинские (полные), английские (полные)
Навигация по главам: есть
Размер: 2.12 GiB
avs [info]: 1280x536p 1:1 @ 24000/1001 fps (cfr)
x264 [info]: using SAR=1/1
x264 [info]: using cpu capabilities: MMX2 SSE2Fast SSSE3 Cache64
x264 [info]: profile High, level 4.1
x264 [info]: frame I:1723 Avg QP:13.08 size:100517
x264 [info]: frame P:37014 Avg QP:16.58 size: 26164
x264 [info]: frame B:128399 Avg QP:19.93 size: 6151
x264 [info]: consecutive B-frames: 2.3% 2.6% 5.8% 32.4% 16.0% 28.1% 4.8% 8.1%
x264 [info]: mb I I16..4: 7.1% 64.3% 28.6%
x264 [info]: mb P I16..4: 1.7% 7.8% 1.5% P16..4: 42.8% 24.2% 14.5% 0.0% 0.0% skip: 7.5%
x264 [info]: mb B I16..4: 0.1% 0.6% 0.1% B16..8: 40.2% 6.7% 1.4% direct: 3.8% skip:47.1% L0:42.1% L1:48.3% BI: 9.6%
x264 [info]: 8x8 transform intra:69.7% inter:60.6%
x264 [info]: coded y,uvDC,uvAC intra: 74.9% 82.1% 60.1% inter: 15.0% 17.8% 3.2%
x264 [info]: i16 v,h,dc,p: 26% 18% 7% 50%
x264 [info]: i8 v,h,dc,ddl,ddr,vr,hd,vl,hu: 21% 17% 16% 5% 8% 9% 8% 8% 8%
x264 [info]: i4 v,h,dc,ddl,ddr,vr,hd,vl,hu: 26% 19% 14% 5% 9% 8% 8% 6% 5%
x264 [info]: i8c dc,h,v,p: 47% 21% 21% 12%
x264 [info]: Weighted P-Frames: Y:5.2% UV:3.1%
x264 [info]: ref P L0: 51.6% 9.2% 15.4% 6.6% 4.7% 3.9% 2.9% 1.8% 1.7% 1.8% 0.3% 0.0%
x264 [info]: ref B L0: 78.1% 9.6% 4.8% 2.1% 2.2% 1.3% 1.1% 0.5% 0.4%
x264 [info]: ref B L1: 93.1% 6.9%
x264 [info]: kb/s:2216.52
encoded 167136 frames, 2.71 fps, 2216.52 kb/s
General
Complete name : ...Passazhiry_2016_KinoGadget.mp4
Format : MPEG-4
Format profile : Base Media
Codec ID : isom (isom)
File size : 2.12 GiB
Duration : 1 h 56 min
Overall bit rate mode : Variable
Overall bit rate : 2 616 kb/s
Movie name : Пассажиры | KinoGadget
Performer : Мортен Тильдум
Director : Мортен Тильдум
Actor : Дженнифер Лоуренс / Крис Прэтт / Майкл Шин / Лоуренс Фишборн / Энди Гарсиа / Винс Фостер / Кара Мишель Уайлдер / Конор Брофи / Джули Серда / Аврора Перрино
Screenplay by : Джон Спэйтс
Producer : Стивен Хэймел / Грег Бассер / Грег Бакстер
Genre : Adventure, Drama, Romance
ContentType : Short Film
Recorded date : 2016
Encoded date : UTC 2017-03-24 05:30:52
Tagged date : UTC 2017-03-24 05:49:24
Cover : Yes
ContentRating : mpaa|PG-13|300|
LongDeion : Космический корабль с 5 000 пассажирами на борту, погруженных на время полета в искусственный сон, держит курс на планету, которая станет для них новым домом. Всё идет по плану, но из-за сбоя системы двое пассажиров неожиданно просыпаются и понимают, что до конечного пункта путешествия 90 лет пути, и им суждено остаток жизни провести вдвоем в роскошных интерьерах корабля, оснащенного по последнему слову техники. Постепенно Джима и Аврору начинает непреодолимо тянуть друг к другу, но корабль попадает в беду, и теперь в их руках — жизнь и судьба всех обитателей корабля.
HDVideo : Yes
Video
ID : 1
Format : AVC
Format/Info : Advanced Video Codec
Format profile : [email protected]
Format settings, CABAC : Yes
Format settings, ReFrames : 10 frames
Codec ID : avc1
Codec ID/Info : Advanced Video Coding
Duration : 1 h 56 min
Bit rate : 2 216 kb/s
Maximum bit rate : 18.2 Mb/s
Width : 1 280 pixels
Height : 536 pixels
Display aspect ratio : 2.40:1
Frame rate mode : Constant
Frame rate : 23.976 (24000/1001) FPS
Color space : YUV
Chroma subsampling : 4:2:0
Bit depth : 8 bits
Scan type : Progressive
Bits/(Pixel*Frame) : 0.135
Stream size : 1.80 GiB (85%)
Writing library : x264 core 148 r2638 7599210
Encoding settings : cabac=1 / ref=10 / deblock=1:-2:-1 / analyse=0x3:0x113 / me=umh / subme=7 / psy=1 / psy_rd=1.00:0.00 / mixed_ref=1 / me_range=32 / chroma_me=1 / trellis=2 / 8x8dct=1 / cqm=0 / deadzone=21,11 / fast_pskip=0 / chroma_qp_offset=-2 / threads=3 / lookahead_threads=1 / sliced_threads=0 / nr=0 / decimate=1 / interlaced=0 / bluray_compat=0 / constrained_intra=0 / bframes=7 / b_pyramid=2 / b_adapt=2 / b_bias=0 / direct=1 / weightb=1 / open_gop=0 / weightp=2 / keyint=250 / keyint_min=25 / scenecut=40 / intra_refresh=0 / rc_lookahead=60 / rc=crf / mbtree=1 / crf=17.0 / qcomp=0.60 / qpmin=0 / qpmax=69 / qpstep=4 / vbv_maxrate=62500 / vbv_bufsize=78125 / crf_max=0.0 / nal_hrd=none / filler=0 / ip_ratio=1.40 / aq=1:1.00
Encoded date : UTC 2017-03-24 04:42:37
Tagged date : UTC 2017-03-24 05:31:54
Audio #1
ID : 2
Format : AAC
Format/Info : Advanced Audio Codec
Format profile : LC
Codec ID : 40
Duration : 1 h 56 min
Bit rate mode : Variable
Bit rate : 128 kb/s
Maximum bit rate : 135 kb/s
Channel(s) : 2 channels
Channel positions : Front: L R
Sampling rate : 48.0 kHz
Frame rate : 46.875 FPS (1024 spf)
Compression mode : Lossy
Stream size : 106 MiB (5%)
Language : Russian
Encoded date : UTC 2017-03-24 04:46:39
Tagged date : UTC 2017-03-24 05:31:54
Audio #2
ID : 3
Format : AAC
Format/Info : Advanced Audio Codec
Format profile : LC
Codec ID : 40
Duration : 1 h 56 min
Bit rate mode : Variable
Bit rate : 128 kb/s
Maximum bit rate : 135 kb/s
Channel(s) : 2 channels
Channel positions : Front: L R
Sampling rate : 48.0 kHz
Frame rate : 46.875 FPS (1024 spf)
Compression mode : Lossy
Stream size : 106 MiB (5%)
Language : Ukrainian
Encoded date : UTC 2017-03-24 04:51:17
Tagged date : UTC 2017-03-24 05:31:54
Audio #3
ID : 4
Format : AAC
Format/Info : Advanced Audio Codec
Format profile : LC
Codec ID : 40
Duration : 1 h 56 min
Bit rate mode : Variable
Bit rate : 128 kb/s
Maximum bit rate : 134 kb/s
Channel(s) : 2 channels
Channel positions : Front: L R
Sampling rate : 48.0 kHz
Frame rate : 46.875 FPS (1024 spf)
Compression mode : Lossy
Stream size : 106 MiB (5%)
Language : English
Encoded date : UTC 2017-03-24 05:01:26
Tagged date : UTC 2017-03-24 05:31:54
Text #1
ID : 5
Format : Timed Text
Codec ID : tx3g
Duration : 1 h 49 min
Bit rate mode : Variable
Bit rate : 1 b/s
Stream size : 639 Bytes (0%)
Language : Russian
Forced : No
Encoded date : UTC 2017-03-24 05:31:54
Tagged date : UTC 2017-03-24 05:31:54
Text #2
ID : 6
Format : Timed Text
Codec ID : tx3g
Duration : 1 h 55 min
Bit rate mode : Variable
Bit rate : 73 b/s
Stream size : 61.6 KiB (0%)
Language : Russian
Forced : No
Encoded date : UTC 2017-03-24 05:31:54
Tagged date : UTC 2017-03-24 05:31:54
Text #3
ID : 7
Format : Timed Text
Codec ID : tx3g
Duration : 1 h 55 min
Bit rate mode : Variable
Bit rate : 88 b/s
Stream size : 74.4 KiB (0%)
Language : Ukrainian
Forced : No
Encoded date : UTC 2017-03-24 05:31:54
Tagged date : UTC 2017-03-24 05:31:54
Text #4
ID : 8
Format : Timed Text
Codec ID : tx3g
Duration : 1 h 49 min
Bit rate mode : Variable
Bit rate : 61 b/s
Stream size : 49.1 KiB (0%)
Language : English
Forced : No
Encoded date : UTC 2017-03-24 05:31:54
Tagged date : UTC 2017-03-24 05:31:54
Menu
00:00:00.000 : 00:00:00.000
00:07:04.674 : 00:07:04.674
00:14:38.211 : 00:14:38.211
00:20:33.649 : 00:20:33.649
00:25:06.338 : 00:25:06.338
00:30:30.662 : 00:30:30.662
00:40:47.987 : 00:40:47.987
00:50:23.020 : 00:50:23.020
00:57:28.945 : 00:57:28.945
01:02:54.813 : 01:02:54.813
01:10:47.160 : 01:10:47.160
01:17:48.664 : 01:17:48.664
01:25:17.029 : 01:25:17.029
01:31:45.041 : 01:31:45.041
01:37:53.242 : 01:37:53.242
01:42:18.549 : 01:42:18.549



_________________
Проголосуй за трекер Открытый торрент трекер - RUS-MEDIA.ORG

Проголосуй Открытый торрент трекер - RUS-MEDIA.ORG


Вернуться к началу
 Профиль Отправить личное сообщение  
 
   Похожие торренты   Автор   Торрент   Размер 
В этой теме нет новых непрочитанных сообщений. Пассажиры / Passengers [фантастика, драма, мелодрама, 2016] BDRip 720p, Dub+Sub [Лицензия]

salma3

547 | 168

6.79 ГБ

В этой теме нет новых непрочитанных сообщений. Пассажиры / Passengers [фантастика, драма, мелодрама, 2016] BDRip-AVC, Dub [Лицензия]

salma3

363 | 51

1.46 ГБ

В этой теме нет новых непрочитанных сообщений. Пассажиры / Passengers [фантастика, драма, мелодрама, 2016] BDRip, Dub+Sub [Лицензия]

salma3

4722 | 688

1.46 ГБ

В этой теме нет новых непрочитанных сообщений. Пассажиры / Passengers [Фантастика, драма, мелодрама, 2016] BDRip 1080p, Dub+Sub [Лицензия]

salma3

0 | 3

17.64 ГБ

В этой теме нет новых непрочитанных сообщений. Пассажиры / Passengers [фантастика, драма, мелодрама, 2016] BDRip 1080p, Dub+Sub [Лицензия]

salma3

404 | 421

12.74 ГБ

В этой теме нет новых непрочитанных сообщений. Пассажиры / Passengers [фантастика, драма, мелодрама, приключения, 2016] UHD BDRemux 2160p, Dub [4K] [Лицензия]

salma3

78 | 132

51.01 ГБ

В этой теме нет новых непрочитанных сообщений. Пассажиры / Passengers [Фантастика, драма, мелодрама, 2016] BDRip 1080p, Dub+Sub [3D Video] [Лицензия]

salma3

314 | 117

8.39 ГБ


Начать новую тему Ответить на тему  [ 1 сообщение ] 




Для Мосгорсуда, Роскомнадзора и рекламодателей:: mosgorsud-torrent[собачка]yandex.ru
cron