Торрент файл
скачать торрент магнет ссылка Добавлен: 22 мар 2014, 17:36
Размер: 1.31 ГБ
Сидеров: 14
Личеров: 2
Автор

СообщениеДобавлено: 22 мар 2014, 17:36 

В сети
Супермодератор
Аватара пользователя
Дата регистрации:
15 фев 2012, 16:44
Возраст: 28
Спасибо: 7204 / 2147
Сообщения: 65199
Год выхода: 2000
Жанр: триллер, драма, криминал
Режиссер: Бен Янгер
В ролях: Джованни Рибизи, Вин Дизель, Ниа Лонг, Бен Аффлек, Никки Кэтт, Скотт Каан, Том Эверетт Скотт, Рон Рифкин, Джейми Кеннеди, Тейлор Николс

О фильме:
Задавались ли вы когда-нибудь вопросом, почему некоторые люди выигрывают в лотерею миллионы долларов, а вы нет? Почему вы зарабатываете 4 тыс. долларов в год, а секретарша из «Майкрософт» 140 тыс. долларов? Почему какой-то балбес раскатывает на новеньком «Феррари», а вы с трудом накопили на подержанный «Вольво»? Неужели эти люди умнее или лучше вас ?!?
Эти же вопросы задавал себе и Сэт Девис, молодой шулер, открывший в своей квартире небольшое подпольное казино. Судьба к нему благосклонна и один из клиентов, неимоверно богатый молодой человек, предлагает ему работать на некую брокерскую фирму, где месячная зарплата превышает годовой доход от его казино. Сет счастлив, его мечта осуществляется, деньги льются рекой, но вскоре он начинает понимать, что за все в жизни приходится расплачиваться...


Страна: США
Студия: New Line Cinema, Team Todd
Продолжительность: 01:59:32
Перевод: Русский профессиональный многоголосый закадровый

Файл
Кодек: H.264
Качество: BDRip-AVC 480p
Видео: [email protected] (16:9) at 23.976 fps, AVC at 1300 kbps
Звук:
1: АAС 2.0 129 kbps - Русский профессиональный многоголосый закадровый
2: АAС 2.0 129 kbps - Английский
Субтитры: Отсутствуют

General
Complete name : C:CREATE264mod1outBoiler.Room.2000 (SD).m4v
Format : MPEG-4
Codec ID : M4V
File size : 1.31 GiB
Duration : 1h 59mn
Overall bit rate mode : Variable
Overall bit rate : 1 568 Kbps
Movie name : Бойлерная
Performer : Ben Younger
Genre : Thriller
ContentType : Short Film
Deion : Задавались ли вы когда-нибудь вопросом, почему некоторые люди выигрывают в лотерею миллионы долларов, а вы нет? Почему вы зарабатываете 4 тыс. долларов в год, а секретарша из «Майкрософт» 140 тыс. долларов?
Recorded date : UTC 2000-07-11 07:00:00
Encoded date : UTC 2014-03-22 07:37:53
Tagged date : UTC 2014-03-22 11:40:47
Copyright : © Copyright 2000 New Line Productions, Inc.
Cover : Yes
Comment : «Если ты такой умный, где же твои деньги?»
ContentRating : mpaa|R|400|

Title/Sort : Boiler Room
LongDeion : Задавались ли вы когда-нибудь вопросом, почему некоторые люди выигрывают в лотерею миллионы долларов, а вы нет? Почему вы зарабатываете 4 тыс. долларов в год, а секретарша из «Майкрософт» 140 тыс. долларов? Почему какой-то балбес раскатывает на новеньком «Феррари», а вы с трудом накопили на подержанный «Вольво»? Неужели эти люди умнее или лучше вас?!? Эти же вопросы задавал себе и Сэт Девис, молодой шулер, открывший в своей квартире небольшое подпольное казино. Судьба к нему благосклонна и один из клиентов, неимоверно богатый молодой человек, предлагает ему работать на некую брокерскую фирму, где месячная зарплата превышает годовой доход от его казино. Сет счастлив, его мечта осуществляется, деньги льются рекой, но вскоре он начинает понимать, что за все в жизни приходится расплачиваться…
AppleStoreCatalogID : 306485736
Vendor : Apple:vendor_id:2000-617

Video
ID : 1
Format : AVC
Format/Info : Advanced Video Codec
Format profile : [email protected]
Format settings, CABAC : No
Format settings, ReFrames : 2 frames
Format settings, GOP : N=1
Codec ID : avc1
Codec ID/Info : Advanced Video Coding
Duration : 1h 59mn
Bit rate : 1 300 Kbps
Maximum bit rate : 6 427 Kbps
Width : 640 pixels
Height : 480 pixels
Display aspect ratio : 16:9
Frame rate mode : Constant
Frame rate : 23.976 fps
Color space : YUV
Chroma subsampling : 4:2:0
Bit depth : 8 bits
Scan type : Progressive
Bits/(Pixel*Frame) : 0.176
Stream size : 1.09 GiB (83%)
Language : English
Encoded date : UTC 2014-03-22 07:37:53
Tagged date : UTC 2014-03-22 07:38:13
Matrix coefficients : BT.709

Audio #1
ID : 2
Format : AAC
Format/Info : Advanced Audio Codec
Format profile : LC
Codec ID : 40
Duration : 1h 59mn
Bit rate mode : Variable
Bit rate : 126 Kbps
Maximum bit rate : 166 Kbps
Channel(s) : 2 channels
Channel positions : Front: L R
Sampling rate : 48.0 KHz
Compression mode : Lossy
Stream size : 107 MiB (8%)
Title : MVO Veles
Language : Russian
Encoded date : UTC 2014-03-22 07:26:12
Tagged date : UTC 2014-03-22 07:38:13

Audio #2
ID : 3
Format : AAC
Format/Info : Advanced Audio Codec
Format profile : LC
Codec ID : 40
Duration : 1h 59mn
Bit rate mode : Variable
Bit rate : 132 Kbps
Maximum bit rate : 167 Kbps
Channel(s) : 2 channels
Channel positions : Front: L R
Sampling rate : 48.0 KHz
Compression mode : Lossy
Stream size : 114 MiB (8%)
Title : Original
Language : English
Encoded date : UTC 2014-03-22 07:34:06
Tagged date : UTC 2014-03-22 07:38:13
Sort Name: Boiler Room
XID: Apple:vendor_id:2000-617
Content ID: 306485736
Copyright: © Copyright 2000 New Line Productions, Inc.
ScreenWriters: Бен Янгер
Producers: Ричард Бренер, Клер Рубник Полштейн, Памела Пост
Director: Бен Янгер
Cast: Джованни Рибизи, Вин Дизель, Ниа Лонг, Бен Аффлек, Никки Кэтт, Скотт Каан, Том Эверетт Скотт, Рон Рифкин, Джейми Кеннеди, Тейлор Николс / Giovanni Ribisi (Seth Davis), Vin Diesel (Chris Varick), Nia Long (Abbie Halpert), Tom Everett Scott (Michael B...
Rating: R
Long Deion: Задавались ли вы когда-нибудь вопросом, почему некоторые люди выигрывают в лотерею миллионы долларов, а вы нет? Почему вы зарабатываете 4 тыс. долларов в год, а секретарша из «Майкрософт» 140 тыс. долларов? Почему какой-то балбес раскатывает на новеньком «Феррари», а вы с трудом накопили на подержанный «Вольво»? Неужели эти люди умнее или лучше вас?!? Эти же вопросы задавал себе и Сэт Девис, молодой шулер, открывший в своей квартире небольшое подпольное казино. Судьба к нему благосклонна и один из клиентов, неимоверно богатый молодой человек, предлагает ему работать на некую брокерскую фирму, где месячная зарплата превышает годовой доход от его казино. Сет счастлив, его мечта осуществляется, деньги льются рекой, но вскоре он начинает понимать, что за все в жизни приходится расплачиваться…
Deion: Задавались ли вы когда-нибудь вопросом, почему некоторые люди выигрывают в лотерею миллионы долларов, а вы нет? Почему вы зарабатываете 4 тыс. долларов в год, а секретарша из «Майкрософт» 140 тыс. долларов?
Release Date: 2000-07-11T07:00:00Z
Genre: Thriller
Artist: Ben Younger
Name: Бойлерная
Comments: «Если ты такой умный, где же твои деньги?»
x264 [info]: frame I:2336 Avg QP:19.64 size: 25701
x264 [info]: frame P:169625 Avg QP:22.56 size: 6515
x264 [info]: mb I I16..4: 39.2% 0.0% 60.8%
x264 [info]: mb P I16..4: 1.4% 0.0% 0.8% P16..4: 55.5% 13.3% 7.2% 0.7% 0.3% skip:20.8%
x264 [info]: coded y,uvDC,uvAC intra: 47.1% 59.7% 25.0% inter: 28.0% 27.0% 5.6%
x264 [info]: i16 v,h,dc,p: 51% 13% 8% 28%
x264 [info]: i4 v,h,dc,ddl,ddr,vr,hd,vl,hu: 29% 14% 17% 6% 7% 9% 6% 7% 4%
x264 [info]: i8c dc,h,v,p: 59% 12% 23% 6%
x264 [info]: ref P L0: 70.2% 29.8%
x264 [info]: kb/s:1299.68


_________________
Проголосуй за трекер Открытый торрент трекер - RUS-MEDIA.ORG

Проголосуй Открытый торрент трекер - RUS-MEDIA.ORG


Вернуться к началу
 Профиль Отправить личное сообщение  
 
   Похожие торренты   Автор   Торрент   Размер 
В этой теме нет новых непрочитанных сообщений. Бойлерная / Boiler Room [Триллер, драма, криминал, 2000] BDRip-AVC, Mvo

salma3

0 | 0

3.44 ГБ

В этой теме нет новых непрочитанных сообщений. Бойлерная / Boiler Room [Триллер, драма, криминал, 2000] BDRemux 1080p, Dub

salma3

0 | 0

27.49 ГБ

В этой теме нет новых непрочитанных сообщений. Зеленая комната / Green Room [Триллер, криминал, 2015] BDRip, Dub

salma3

70 | 7

1.47 ГБ

В этой теме нет новых непрочитанных сообщений. Зеленая комната / Green Room [Триллер, криминал, 2015] BDRip 720p, Dub

salma3

18 | 5

4.2 ГБ

В этой теме нет новых непрочитанных сообщений. Гангстер №1 / Gangster No.1 [триллер, драма, криминал, 2000] BDRip 1080p, Mvo

salma3

0 | 16

15.44 ГБ

В этой теме нет новых непрочитанных сообщений. Опасная правда / Антимонополия / Antitrust [триллер, драма, криминал, 2000] BDRip 720p, Dvo+Avo+Sub

salma3

128 | 9

4.37 ГБ

В этой теме нет новых непрочитанных сообщений. Комната страха / Panic Room [триллер, драма, криминал, 2002] WEB-DL 1080p, Dub

salma3

15 | 2

7.72 ГБ


Начать новую тему Ответить на тему  [ 1 сообщение ] 




Для Мосгорсуда, Роскомнадзора и рекламодателей:: mosgorsud-torrent[собачка]yandex.ru
cron