Торрент файл
скачать торрент магнет ссылка Добавлен: 29 янв 2013, 20:33
Размер: 1.34 ГБ
Сидеров: 11
Личеров: 3
Автор

СообщениеДобавлено: 29 янв 2013, 20:33 

Не в сети
Зам. Админа
Аватара пользователя
Дата регистрации:
02 дек 2010, 12:39
Спасибо: 12652 / 214
Сообщения: 28010

Страна: США
Производство: Tim Burton Animation Co., Tim Burton Productions, Walt Disney
Год выпуска: 2012
Жанр:мультфильм, ужасы, фантастика, комедия, семейный

Продолжительность:01:26:56
Перевод: Дублированный
Оригинальная аудиодорожка: английская
Субтитры: английские
Навигация по главам: есть

Режиссер: Тим Бёртон
Актеры: Вайнона Райдер, Кристофер Ли, Кэтрин О’Хара, Мартин Шорт, Кончата Феррелл, Аттикус Шаффер, Мартин Ландау, Том Кенни, Чарли Тахэн, Роберт Капрон

Описание фильма: Обожаемый мальчиком Виктором пес Спарки погибает в результате несчастного случая. Мальчик, не желая мириться с потерей друга, призывает науку на помощь и…возвращает питомца к жизни! Казалось бы, все не так уж плохо, но когда Спарки сбегает от Виктора, его друзья, родители, учителя и жители городка узнают, что возвращение к жизни домашнего питомца может повлечь за собой неожиданные и даже ужасные последствия!

Кодек: H.264/AVC
Формат: MP4 (контейнер m4v)
Качество видео: BDRip / 576p
Видео: 1024x554 (16:9) at 23.976 fps, AVC at 1807 kbps avg, 0.133 bit/pixel
Звук: Русский: 48 kHz, AAC, 2 ch, 128 kbps | Дублированный
Звук: Английский: 48 kHz, AAC, 2 ch, 128 Kbps | Оригинал

Автор рипа: leonardo 59

Релиз подготовлен специально для просмотра на Apple TV и iPad.
Пользователям Windows рекомендуется просматривать в VLC.




Complete name : D:rutorFrankenweenie.2012.iPad.1024x.leonardo59.BDRip.m4v
Format : MPEG-4
Format profile : Base Media / Version 2
Codec ID : mp42
File size : 1.26 GiB
Duration : 1h 26mn
Overall bit rate mode : Variable
Overall bit rate : 2 080 Kbps
Movie name : Франкенвини
Performer : Тим Бёртон
Genre : Kids & Family
Recorded date : 2012-09-20T07:00:00Z
Encoded date : UTC 2012-12-26 15:39:26
Tagged date : UTC 2012-12-27 06:40:21
Cover : Yes
desc : Обожаемый мальчиком Виктором пес Спарки погибает в результате несчастного случая. Мальчик, не желая мириться с потерей друга, призывает науку на помощь и…возвращает питомца к жизни! Казалось бы, все не так уж плохо, но когда Спарки сбегает от Виктора
ldes : Обожаемый мальчиком Виктором пес Спарки погибает в результате несчастного случая. Мальчик, не желая мириться с потерей друга, призывает науку на помощь и…возвращает питомца к жизни! Казалось бы, все не так уж плохо, но когда Спарки сбегает от Виктора, его друзья, родители, учителя и жители городка узнают, что возвращение к жизни домашнего питомца может повлечь за собой неожиданные и даже ужасные последствия!
hdvd : 0
stik : 9
rtng : 0
cnID : 570830865
xid : Apple:vendor_id:2012-408395
iTunEXTC : mpaa|PG|200|
iTunMOVI : / / / / cast / / / name / Вайнона Райдер / / / name / Кристофер Ли / / / name / Кэтрин О’Хара / / / name / Мартин Шорт / / / name / Кончата Феррелл / / / name / Аттикус Шаффер / / / name / Мартин Ландау / / / name / Том Кенни / / / name / Чарли Тахэн / / / name / Роберт Капрон / / / directors / / / name / Тим Бёртон / / / producers / / / name / Эллисон Эббейт / / / name / Тим Бёртон / / / name / Дерек Фрэй / / / screenwriters / / / name / Джон Огаст / / / name / Тим Бёртон / / / name / Леонард Риппс / / / /

Video #1
ID : 1
Format : AVC
Format/Info : Advanced Video Codec
Format profile : [email protected]
Format settings, CABAC : Yes
Format settings, ReFrames : 12 frames
Codec ID : avc1
Codec ID/Info : Advanced Video Coding
Duration : 1h 26mn
Bit rate mode : Variable
Bit rate : 1 807 Kbps
Width : 1 024 pixels
Height : 554 pixels
Display aspect ratio : 16:9
Frame rate mode : Variable
Frame rate : 23.976 fps
Minimum frame rate : 23.810 fps
Maximum frame rate : 24.390 fps
Color space : YUV
Chroma subsampling : 4:2:0
Bit depth : 8 bits
Scan type : Progressive
Bits/(Pixel*Frame) : 0.133
Stream size : 1.10 GiB (87%)
Writing library : x264 core 120
Encoding settings : cabac=1 / ref=12 / deblock=1:-3:-3 / analyse=0x3:0x133 / me=umh / subme=11 / psy=1 / psy_rd=1.00:0.05 / mixed_ref=1 / me_range=64 / chroma_me=1 / trellis=2 / 8x8dct=1 / cqm=0 / deadzone=21,11 / fast_pskip=1 / chroma_qp_offset=-3 / threads=3 / sliced_threads=0 / nr=0 / decimate=1 / interlaced=0 / bluray_compat=0 / constrained_intra=0 / bframes=8 / b_pyramid=2 / b_adapt=2 / b_bias=0 / direct=1 / weightb=1 / open_gop=0 / weightp=2 / keyint=240 / keyint_min=24 / scenecut=40 / intra_refresh=0 / rc=crf / mbtree=0 / crf=18.8 / qcomp=0.70 / qpmin=3 / qpmax=69 / qpstep=4 / ip_ratio=1.30 / pb_ratio=1.20 / aq=2:1.00
Encoded date : UTC 2012-12-26 15:39:26
Tagged date : UTC 2012-12-27 05:41:29
Color primaries : BT.709-5, BT.1361, IEC 61966-2-4, SMPTE RP177
Transfer characteristics : BT.709-5, BT.1361
Matrix coefficients : BT.709-5, BT.1361, IEC 61966-2-4 709, SMPTE RP177

Video #2
ID : 6
Format : JPEG
Codec ID : jpeg
Duration : 1h 26mn
Bit rate mode : Variable
Bit rate : 907 bps
Width : 640 pixels
Height : 346 pixels
Display aspect ratio : 1.850
Frame rate mode : Variable
Frame rate : 0.003 fps
Minimum frame rate : 0.002 fps
Maximum frame rate : 0.005 fps
Compression mode : Lossy
Bits/(Pixel*Frame) : 1.365
Stream size : 590 KiB (0%)
Encoded date : UTC 2012-12-27 06:12:46
Tagged date : UTC 2012-12-27 06:12:48

Audio #1
ID : 2
Format : AAC
Format/Info : Advanced Audio Codec
Format profile : LC
Codec ID : 40
Duration : 1h 26mn
Bit rate mode : Variable
Bit rate : 132 Kbps
Maximum bit rate : 218 Kbps
Channel(s) : 2 channels
Channel positions : Front: L R
Sampling rate : 48.0 KHz
Compression mode : Lossy
Stream size : 81.8 MiB (6%)
Language : Russian
Encoded date : UTC 2012-12-27 06:01:51
Tagged date : UTC 2012-12-27 06:12:41

Audio #2
ID : 3
Format : AAC
Format/Info : Advanced Audio Codec
Format profile : LC
Codec ID : 40
Duration : 1h 26mn
Bit rate mode : Variable
Bit rate : 132 Kbps
Maximum bit rate : 200 Kbps
Channel(s) : 2 channels
Channel positions : Front: L R
Sampling rate : 48.0 KHz
Compression mode : Lossy
Stream size : 81.9 MiB (6%)
Language : English
Encoded date : UTC 2012-12-27 06:01:51
Tagged date : UTC 2012-12-27 06:12:41

Text #1
ID : 4
Format : Timed text
Muxing mode : sbtl
Codec ID : tx3g
Duration : 1h 23mn
Bit rate mode : Constant
Bit rate : 6 bps
Stream size : 3.95 KiB (0%)
Language : English
Encoded date : UTC 2012-12-27 06:01:52
Tagged date : UTC 2012-12-27 06:12:41

Text #2
ID : 7
Format : Apple text
Codec ID : text
Duration : 1h 26mn
Bit rate mode : Constant
Bit rate : 1 bps
Stream size : 416 Bytes (0%)
Encoded date : UTC 2012-12-27 06:40:01
Tagged date : UTC 2012-12-27 06:40:01

Menu
00:00:00.000 : 00:00:00.000
00:05:25.325 : 00:05:25.325
00:11:17.218 : 00:11:17.218
00:15:32.014 : 00:15:32.014
00:19:28.292 : 00:19:28.292
00:26:09.318 : 00:26:09.318
00:31:59.793 : 00:31:59.793
00:35:52.525 : 00:35:52.525
00:41:12.178 : 00:41:12.178
00:46:44.385 : 00:46:44.385
00:50:13.344 : 00:50:13.344
00:55:24.863 : 00:55:24.863
01:03:47.198 : 01:03:47.198
01:09:25.995 : 01:09:25.995
01:16:44.934 : 01:16:44.934
01:20:08.804 : 01:20:08.804
x264 [info]: frame I:1390Avg QP:16.23size: 60544PSNR Mean Y:47.52 U:56.00 V:56.68 Avg:48.98 Global:48.30
x264 [info]: frame P:30315 Avg QP:18.69size: 16378PSNR Mean Y:46.46 U:54.16 V:55.06 Avg:47.86 Global:46.94
x264 [info]: frame B:93373 Avg QP:21.21size:6402PSNR Mean Y:46.04 U:54.05 V:55.04 Avg:47.47 Global:46.56
x264 [info]: consecutive B-frames:2.9%2.6%8.9% 41.7% 19.2% 18.5%3.4%2.1%0.8%
x264 [info]: mb II16..4:9.5% 61.3% 29.2%
x264 [info]: mb PI16..4:0.3%5.3%2.0%P16..4: 27.3% 25.7%7.0%2.9%0.4%skip:29.1%
x264 [info]: mb BI16..4:0.0%1.0%0.4%B16..8: 25.9% 11.7%2.5%direct: 2.8%skip:55.6%L0:41.6% L1:47.7% BI:10.7%
x264 [info]: 8x8 transform intra:66.5% inter:51.9%
x264 [info]: coded y,uvDC,uvAC intra: 89.5% 22.9% 5.3% inter: 12.8% 2.0% 0.1%
x264 [info]: i16 v,h,dc,p: 18% 24%4% 54%
x264 [info]: i8 v,h,dc,ddl,ddr,vr,hd,vl,hu:9%9%6% 10% 14% 13% 13% 12% 14%
x264 [info]: i4 v,h,dc,ddl,ddr,vr,hd,vl,hu: 10%7%5% 10% 16% 14% 14% 11% 13%
x264 [info]: i8c dc,h,v,p: 28% 56% 13%4%
x264 [info]: Weighted P-Frames: Y:8.9% UV:1.9%
x264 [info]: ref P L0: 50.6%9.3% 15.2%6.1%4.6%3.7%2.9%1.7%1.6%1.4%1.2%1.3%0.3%0.0%
x264 [info]: ref B L0: 73.6% 10.5%5.1%2.8%2.4%1.6%1.3%0.9%1.0%0.5%0.3%
x264 [info]: ref B L1: 93.1%6.9%
x264 [info]: SSIM Mean Y:0.9878962 (19.171db)
x264 [info]: PSNR Mean Y:46.158 U:54.096 V:55.062 Avg:47.581 Global:46.662 kb/s:1807.17




Вернуться к началу
 Профиль  
 
   Похожие торренты   Автор   Торрент   Размер 
В этой теме нет новых непрочитанных сообщений. Клетка / The Cell [ужасы, фантастика, триллер, 2000] BDRip 720p, Dub [iPad]

salma3

13 | 2

2.27 ГБ

В этой теме нет новых непрочитанных сообщений. Коллекционер 2 / The Collection [ужасы, боевик, триллер, 2012] BDRip 720p, Dub [iPad]

salma3

0 | 0

1.73 ГБ

В этой теме нет новых непрочитанных сообщений. Морган / Morgan [ужасы, фантастика, триллер, 2016] BDRip 720p, Dub [iPad] [Лицензия]

salma3

41 | 20

1.56 ГБ

В этой теме нет новых непрочитанных сообщений. Дум / Doom [ужасы, фантастика, боевик, приключения, 2005] BDRip 720p, Dub [Расширенная версия] [iPad]

salma3

61 | 28

2.07 ГБ

В этой теме нет новых непрочитанных сообщений. Поворот не туда 5: Кровное родство / Wrong Turn 5: Bloodlines [ужасы, 2012] BDRip 720p, Dub [iPad] [Лицензия]

salma3

7 | 1

1.78 ГБ

В этой теме нет новых непрочитанных сообщений. Третий лишний / Ted [фэнтези, комедия, 2012] BDRip 720p, Dub [iPad] [Лицензия]

salma3

16 | 10

2.67 ГБ

В этой теме нет новых непрочитанных сообщений. Человек-муравей / Ant-Man [фантастика, боевик, комедия, 2015] BDRip 720p, Dub [iPad] [Лицензия]

salma3

85 | 19

2.15 ГБ


Начать новую тему Ответить на тему  [ 1 сообщение ] 




Для Мосгорсуда, Роскомнадзора и рекламодателей:: mosgorsud-torrent[собачка]yandex.ru
cron