Торрент файл
скачать торрент магнет ссылка Добавлен: 12 янв 2013, 23:56
Размер: 3.11 ГБ
Сидеров: 3
Личеров: 3
Автор

СообщениеДобавлено: 12 янв 2013, 23:56 

Не в сети
Супермодератор
Аватара пользователя
Дата регистрации:
11 апр 2010, 18:10
Спасибо: 5995 / 7
Сообщения: 56685
id="p-25224744-1">Книга Илая / The Book of Eli«Одни готовы убивать, чтобы завладеть ею. Он готов убивать, чтобы защитить её.»

Год выпуска: 2010
Страна: США
Жанр: боевик, триллер, драма, приключения, вестерн
Продолжительность: 01:57:36
Перевод: Профессиональный (полное дублирование)

Режиссер: Альберт Хьюз / Albert Hughes, Аллен Хьюз / Allen Hughes

Сценарий: Гари Уитта / Gary Whitta
Продюсер: Брэд Аренсмен / Brad Arensman, Иоланда Т. Кохрэн / Yolanda T. Cochran, Сьюзэн Дауни / Susan Downey, Бродерик Джонсон / Broderick Johnson, Эндрю А. Косов / Andrew A. Kosove

Оператор: Дон Бёрджесс / Don Burgess
Композитор: Аттикус Росс / Atticus Ross, Лео Росс / Leo Ross, Клаудия Сарн / Claudia Sarne

В ролях: Дензел Вашингтон (Eli), Гари Олдман (Carnegie), Мила Кунис (Solara), Рэй Стивенсон (Redridge), Дженнифер Билз (Claudia), Ивэн Джонс (Martz), Джо Пинг (Hoyt), Фрэнсис Де Ла Тур (Martha), Малкольм МакДауэлл (Lombardi), Майкл Гэмбон (George), Том Уэйтс (Engineer), Крис Браунинг (Hijack Leader)
Дублёры: Денис Беспалый (Eli), Леонид Белозорович (Carnegie), Елена Лагута (Solara), Михаил Георгиу (Redridge), Любовь Германова (Claudia), Константин Карасик (Martz), Олег Форостенко (Lombardi), Андрей Ярославцев (George), Никита Прозоровский (Engineer)

Описание: После вселенской катастрофы Америка превратилась в выжженную пустыню. По бескрайним дорогам, кишащим бандами, враждующими между собой за воду и еду, странствует мудрый Илай. Однажды он прибывает в мрачные края, где когда-то была цветущая Калифорния, а теперь это сущий ад, где бесчинствует тиран Карнеги.

Качество: BDRip Исходник: (BD Remux)
Формат: m4v
Видео кодек: H.264
Аудио кодек: AAC
Видео: 1280x534, 3500 Kbps, 23,976 fps
Аудио RUS: 48 kHz, AAC, 2ch, 169kbps - Дубляж
Аудио ENG: 48 kHz, AAC, 2ch, 114kbps - Оригинал
MediaInfo
Код:
Код:
Полное имя : F:\The Book of Eli.m4v
Формат : MPEG-4
Идентификатор кодека : M4V
Размер файла : 3,11 Гбайт
Продолжительность : 1 ч. 57 м.
Общий поток : 3790 Кбит/сек
Название фильма : The Book of Eli
Исполнитель : Albert Hughes & Allen Hughes
Жанр : Action & Adventure
Дата записи : 2010-04-20T07:00:00Z
Дата кодирования : UTC 2011-10-26 06:58:22
Дата пометки : UTC 2011-10-27 07:04:36
Обложка : Yes
desc : После вселенской катастрофы Америка превратилась в выжженную пустыню. По бескрайним дорогам, кишащим бандами, враждующими между собой за воду и еду, странствует мудрый Илай.
ldes : После вселенской катастрофы Америка превратилась в выжженную пустыню. По бескрайним дорогам, кишащим бандами, враждующими между собой за воду и еду, странствует мудрый Илай. Однажды он прибывает в мрачные края, где когда-то была цветущая Калифорния, а теперь это сущий ад, где бесчинствует тиран Карнеги.
hdvd : 1
stik : 9
cnID : 357620152
xid : iPad:vendor_id:2009-424266
iTunEXTC : mpaa|R|400|
iTunMOVI : / / / / cast / / / name / Дензел Вашингтон / / / name / Гари Олдман / / / name / Мила Кунис / / / name / Рэй Стивенсон / / / name / Дженнифер Билз / / / name / Ивэн Джонс / / / name / Джо Пинг / / / name / Фрэнсис Де Ла Тур / / / name / Майкл Гэмбон / / / name / Том Уэйтс / / / directors / / / name / Альберт Хьюз / / / name / Аллен Хьюз / / / producers / / / name / Дензел Вашингтон / / / name / Бродерик Джонсон / / / name / Эндрю А. Косов / / / screenwriters / / / name / Гари Уитта / / / /
Видео
Идентификатор : 1
Формат : AVC
Формат/Информация : Advanced Video Codec
Профиль формата : [email protected]
Параметр CABAC формата : Да
Параметр ReFrames формата : 6 кадры
Идентификатор кодека : avc1
Идентификатор кодека/Информация : Advanced Video Coding
Продолжительность : 1 ч. 57 м.
Вид битрейта : Переменный
Битрейт : 3500 Кбит/сек
Максимальный битрейт : 22,4 Мбит/сек
Ширина : 1280 пикс.
Высота : 534 пикс.
Соотношение сторон : 2,35:1
Режим частоты кадров : Постоянный
Частота кадров : 23,976 кадр/сек
Цветовое пространство : YUV
Подвыборка цветности : 4:2:0
Битовая глубина : 8 бит
Тип развёртки : Прогрессивная
Бит/(Пиксели*Кадры) : 0.214
Размер потока : 2,88 Гбайт (92%)
Библиотека кодирования : x264 core 92 r1510 33d382a
Настройки программы : cabac=1 / ref=7 / deblock=1:-3:-3 / analyse=0x3:0x133 / me=umh / subme=9 / psy=1 / psy_rd=1.30:0.00 / mixed_ref=1 / me_range=24 / chroma_me=1 / trellis=2 / 8x8dct=1 / cqm=0 / deadzone=21,11 / fast_pskip=0 / chroma_qp_offset=-2 / threads=10 / sliced_threads=0 / nr=0 / decimate=0 / interlaced=0 / constrained_intra=0 / bframes=6 / b_pyramid=1 / b_adapt=2 / b_bias=0 / direct=3 / wpredb=1 / wpredp=2 / keyint=240 / keyint_min=24 / scenecut=40 / intra_refresh=0 / rc_lookahead=60 / rc=2pass / mbtree=1 / bitrate=3500 / ratetol=1.0 / qcomp=0.80 / qpmin=10 / qpmax=51 / qpstep=4 / cplxblur=20.0 / qblur=0.5 / ip_ratio=1.10 / aq=1:1.00
Язык : English
Дата кодирования : UTC 2011-10-26 06:58:22
Дата пометки : UTC 2011-10-26 07:01:14
Аудио #1
Идентификатор : 2
Формат : AAC
Формат/Информация : Advanced Audio Codec
Профиль формата : LC
Идентификатор кодека : 40
Продолжительность : 1 ч. 57 м.
Вид битрейта : Переменный
Битрейт : 169 Кбит/сек
Максимальный битрейт : 219 Кбит/сек
Канал(ы) : 2 канала(ов)
Расположение каналов : Front: L R
Частота : 48,0 КГц
Метод сжатия : С потерями
Размер потока : 142 Мбайт (4%)
Заголовок : Russian stereo
Язык : Russian
Дата кодирования : UTC 2011-10-26 07:00:54
Дата пометки : UTC 2011-10-26 07:01:14
Аудио #2
Идентификатор : 3
Формат : AAC
Формат/Информация : Advanced Audio Codec
Профиль формата : LC
Идентификатор кодека : 40
Продолжительность : 1 ч. 57 м.
Вид битрейта : Переменный
Битрейт : 114 Кбит/сек
Максимальный битрейт : 189 Кбит/сек
Канал(ы) : 2 канала(ов)
Расположение каналов : Front: L R
Частота : 48,0 КГц
Метод сжатия : С потерями
Размер потока : 96,2 Мбайт (3%)
Заголовок : English stereo
Язык : English
Дата кодирования : UTC 2011-10-26 07:01:03
Дата пометки : UTC 2011-10-26 07:01:14
Текст #1
Идентификатор : 4
Формат : Timed text
Режим смешивания : sbtl
Идентификатор кодека : tx3g
Продолжительность : 1 ч. 51 м.
Вид битрейта : Переменный
Битрейт : 52 бит/сек
Размер потока : 42,5 Кбайт (0%)
Язык : Russian
Дата кодирования : UTC 2011-10-26 07:01:13
Дата пометки : UTC 2011-10-26 07:01:14
Текст #2
Идентификатор : 5
Формат : Timed text
Режим смешивания : sbtl
Идентификатор кодека : tx3g
Продолжительность : 1 ч. 48 м.
Вид битрейта : Переменный
Битрейт : 35 бит/сек
Размер потока : 28,0 Кбайт (0%)
Язык : English
Дата кодирования : UTC 2011-10-26 07:01:13
Дата пометки : UTC 2011-10-26 07:01:14
Текст #3
Идентификатор : 6
Формат : Apple text
Идентификатор кодека : text
Продолжительность : 1 ч. 57 м.
Вид битрейта : Постоянный
Битрейт : 1 бит/сек
Размер потока : 464 байт (0%)
Дата кодирования : UTC 2011-10-27 07:04:17
Дата пометки : UTC 2011-10-27 07:04:17

Скриншоты



Вернуться к началу
 Профиль Отправить личное сообщение  
 
   Похожие торренты   Автор   Торрент   Размер 
В этой теме нет новых непрочитанных сообщений. Удивительный Говард Хьюз / The Amazing Howard Hughes [драма, биография, 1977] HDRip, Avo

salma3

61 | 24

1.45 ГБ

В этой теме нет новых непрочитанных сообщений. Книга Илая / The Book of Eli [Боевик, фантастика, 2010] BDRip 720p, Dub

salma3

1 | 33

5.43 ГБ

В этой теме нет новых непрочитанных сообщений. Книга Илая / The Book of Eli [боевик, триллер, драма, 2010] WEB-DL 1080p, Dub [Open Matte]

salma3

0 | 0

7.58 ГБ

В этой теме нет новых непрочитанных сообщений. Книга Илая / The Book of Eli [Боевик, фантастика, 2010] BDRip-AVC, Dub

salma3

16 | 3

1.46 ГБ

В этой теме нет новых непрочитанных сообщений. Книга Илая / The Book of Eli [Боевик, фантастика, 2010] BDRemux 1080p, Dub

salma3

8 | 24

29.38 ГБ

В этой теме нет новых непрочитанных сообщений. Книга крови / Book of Blood [ужасы, триллер, драма, 2009] BDRip 720p, Dub [Режиссерская версия]

salma3

0 | 2

3.89 ГБ

В этой теме нет новых непрочитанных сообщений. Книга Генри / The Book of Henry [Триллер, драма, криминал, 2017] BDRip, Dub

salma3

0 | 0

746.29 МБ


Начать новую тему Ответить на тему  [ 1 сообщение ] 




Для Мосгорсуда, Роскомнадзора и рекламодателей:: mosgorsud-torrent[собачка]yandex.ru
cron