Торрент файл
скачать торрент магнет ссылка Добавлен: 12 янв 2013, 23:56
Размер: 2.86 ГБ
Сидеров: 7
Личеров: 5
Автор

СообщениеДобавлено: 12 янв 2013, 23:56 

Не в сети
Супермодератор
Аватара пользователя
Дата регистрации:
11 апр 2010, 18:10
Спасибо: 5996 / 7
Сообщения: 56684
id="p-25224744-1">
Один дома / Home Alone«When Kevin's Family Left For Vacation, They Forgot One Minor Detail: Kevin.
But Don't Worry... He Cooks. He Cleans. He Kicks Some Butt.»



Страна: США
Жанр: комедия, приключения, семейный
Год выпуска: 1990

Перевод #1: Профессиональный (многоголосый, закадровый)
Перевод #2: Авторский (одноголосый, закадровый) Михалев

Оригинальная аудиодорожка: Английский
Cубтитры: Русские, Английские
Режиссер: Крис Коламбус / Chris Columbus

В ролях: Маколей Калкин (Kevin McCallister,), Джо Пеши (Harry), Дэниел Стерн (Marv), Джон Хёрд (Peter McCallister), Робертс Блоссом (Marley), Кэтрин О’Хара (Kate McCallister), Анджела Геталс (Linnie), Девин Рэтрей (Buzz), Джерри Бэммен (Uncle Frank), Хиллари Вульф (Megan), Джон Кэнди (Gus Polinski), Ларри Хэнкин (Officer Balzak)
Дублёры: Анастасия Гиренкова (Kevin McCallister), Виталий Дорошенко (Harry), Владимир Шныпарь (Peter McCallister), Валентина Гришокина (Kate McCallister)

Описание: Американское семейство отправляется из Чикаго в Европу, но в спешке сборов бестолковые родители забывают дома… одного из своих детей. Юное создание, однако, не теряется и демонстрирует чудеса изобретательности. И когда в дом залезают грабители, им приходится не раз пожалеть о встрече с милым крошкой.
Рейтинг
imdb.com: 7.10 (114 442)
MPAA: PG - Рекомендуется присутствие родителей
Качество видео: BDRip - Исходник BD Remux
Формат видео: m4v
Видео кодек: H.264
Аудио кодек: AAC
Видео: 1280х688 (1.86:1), 23,976 fps, H.264 3450 kbps avg, 0.163 bit/pixel
Аудио #1: Russian, 48,0 kHz, AAC LC, 2 ch, 164 kbps avg | MVO
Аудио #2: Russian, 48,0 kHz, AAC LC, 2 ch, 172 kbps avg | AVO
Аудио #3: English, 48,0 kHz, AAC LC, 2 ch, 181 kbps avg | Original
MediaInfo
Код:
Код:
General
Complete name                            : D:\iPad.2\Home Alone\Home.Alone.1990.BDRip.m4v
Format                                   : MPEG-4
Codec ID                                 : M4V
File size                                : 2.86 GiB
Duration                                 : 1h 42mn
Overall bit rate mode                    : Variable
Overall bit rate                         : 3 985 Kbps
Movie name                               : Один дома
Performer                                : Крис Коламбус
Genre                                    : комедия, приключения, семейный
Recorded date                            : UTC 1990-11-10 07:00:00
Encoded date                             : UTC 2011-12-24 14:21:21
Tagged date                              : UTC 2011-12-25 14:28:59
Writing application                      : MkvToMp4 [www.mkvtomp4.ru] version 0.218Test3
Cover                                    : Yes
desc                                     : Американское семейство отправляется из Чикаго в Европу, но в спешке сборов бестолковые родители забывают дома… одного из своих детей. Юное создание, однако, не теряется и демонстрирует чудеса изобретательности.
ldes                                     : Американское семейство отправляется из Чикаго в Европу, но в спешке сборов бестолковые родители забывают дома… одного из своих детей. Юное создание, однако, не теряется и демонстрирует чудеса изобретательности. И когда в дом залезают грабители, им приходится не раз пожалеть о встрече с милым крошкой.
hdvd                                     : 1
stik                                     : 9
cnID                                     : 344796733
xid                                      : RG-Apple:vendor_id:-
iTunEXTC                                 : mpaa|PG-13|300|
iTunMOVI                                 : <?xml version="1.0" encoding="UTF-8"?> / <!DOCTYPE plist PUBLIC "-/Apple/DTD PLIST 1.0/EN" "http:/www.apple.com/DTDs/PropertyList-1.0.dtd"> / <plist version="1.0"> /  <dict> /   <key>cast</key> /   <array> /    <dict> /     <key>name</key> /     <string>Маколей Калкин</string> /    </dict> /    <dict> /     <key>name</key> /     <string>Джо Пеши</string> /    </dict> /    <dict> /     <key>name</key> /     <string>Дэниел Стерн</string> /    </dict> /    <dict> /     <key>name</key> /     <string>Джон Хёрд</string> /    </dict> /    <dict> /     <key>name</key> /     <string>Робертс Блоссом</string> /    </dict> /    <dict> /     <key>name</key> /     <string>Кэтрин О’Хара</string> /    </dict> /    <dict> /     <key>name</key> /     <string>Анджела Геталс</string> /    </dict> /    <dict> /     <key>name</key> /     <string>Девин Рэтрей</string> /    </dict> /    <dict> /     <key>name</key> /     <string>Джерри Бэммен</string> /    </dict> /    <dict> /     <key>name</key> /     <string>Хиллари Вульф</string> /    </dict> /   </array> /   <key>directors</key> /   <array> /    <dict> /     <key>name</key> /     <string>Крис Коламбус</string> /    </dict> /   </array> /   <key>producers</key> /   <array> /    <dict> /     <key>name</key> /     <string>Тарквин Готч</string> /    </dict> /    <dict> /     <key>name</key> /     <string>Джон Хьюз</string> /    </dict> /    <dict> /     <key>name</key> /     <string>Марк Левинсон</string> /    </dict> /   </array> /   <key>screenwriters</key> /   <array> /    <dict> /     <key>name</key> /     <string>Джон Хьюз</string> /    </dict> /   </array> /  </dict> / </plist>
Video
ID                                       : 1
Format                                   : AVC
Format/Info                              : Advanced Video Codec
Format profile                           : [email protected]
Format settings, CABAC                   : Yes
Format settings, ReFrames                : 10 frames
Codec ID                                 : avc1
Codec ID/Info                            : Advanced Video Coding
Duration                                 : 1h 42mn
Bit rate                                 : 3 450 Kbps
Maximum bit rate                         : 14.4 Mbps
Width                                    : 1 280 pixels
Height                                   : 688 pixels
Display aspect ratio                     : 1.860
Frame rate mode                          : Variable
Frame rate                               : 23.976 fps
Minimum frame rate                       : 5.994 fps
Maximum frame rate                       : 24.038 fps
Color space                              : YUV
Chroma subsampling                       : 4:2:0
Bit depth                                : 8 bits
Scan type                                : Progressive
Bits/(Pixel*Frame)                       : 0.163
Stream size                              : 2.48 GiB (87%)
Writing library                          : x264 core 112
Encoding settings                        : cabac=1 / ref=10 / deblock=1:0:0 / analyse=0x3:0x113 / me=umh / subme=9 / psy=1 / psy_rd=1.00:0.00 / mixed_ref=1 / me_range=32 / chroma_me=1 / trellis=1 / 8x8dct=1 / cqm=0 / deadzone=21,11 / fast_pskip=1 / chroma_qp_offset=-2 / threads=12 / sliced_threads=0 / nr=0 / decimate=1 / interlaced=0 / constrained_intra=0 / bframes=6 / b_pyramid=2 / b_adapt=1 / b_bias=0 / direct=1 / weightb=1 / open_gop=0 / weightp=2 / keyint=240 / keyint_min=23 / scenecut=40 / intra_refresh=0 / rc_lookahead=40 / rc=2pass / mbtree=1 / bitrate=3450 / ratetol=1.0 / qcomp=0.60 / qpmin=3 / qpmax=51 / qpstep=4 / cplxblur=20.0 / qblur=0.5 / ip_ratio=1.40 / aq=1:1.00
Language                                 : English
Encoded date                             : UTC 2011-12-24 14:21:21
Tagged date                              : UTC 2011-12-24 14:23:18
Material_Duration                        : 6174168
Material_StreamSize                      : 2662757683
Material_FrameCount                      : 148028
Color primaries                          : BT.709-5, BT.1361, IEC 61966-2-4, SMPTE RP177
Transfer characteristics                 : BT.709-5, BT.1361
Matrix coefficients                      : BT.709-5, BT.1361, IEC 61966-2-4 709, SMPTE RP177
Audio #1
ID                                       : 2
Format                                   : AAC
Format/Info                              : Advanced Audio Codec
Format profile                           : LC
Codec ID                                 : 40
Duration                                 : 1h 42mn
Bit rate mode                            : Variable
Bit rate                                 : 164 Kbps
Maximum bit rate                         : 262 Kbps
Channel(s)                               : 2 channels
Channel positions                        : Front: L R
Sampling rate                            : 48.0 KHz
Compression mode                         : Lossy
Stream size                              : 121 MiB (4%)
Title                                    : MVO
Language                                 : Russian
Encoded date                             : UTC 2011-12-24 14:22:31
Tagged date                              : UTC 2011-12-24 14:23:18
Audio #2
ID                                       : 3
Format                                   : AAC
Format/Info                              : Advanced Audio Codec
Format profile                           : LC
Codec ID                                 : 40
Duration                                 : 1h 42mn
Bit rate mode                            : Variable
Bit rate                                 : 172 Kbps
Maximum bit rate                         : 242 Kbps
Channel(s)                               : 2 channels
Channel positions                        : Front: L R
Sampling rate                            : 48.0 KHz
Compression mode                         : Lossy
Stream size                              : 127 MiB (4%)
Title                                    : AVO (Zhivov)
Language                                 : Russian
Encoded date                             : UTC 2011-12-24 14:22:48
Tagged date                              : UTC 2011-12-24 14:23:18
Audio #3
ID                                       : 4
Format                                   : AAC
Format/Info                              : Advanced Audio Codec
Format profile                           : LC
Codec ID                                 : 40
Duration                                 : 1h 42mn
Bit rate mode                            : Variable
Bit rate                                 : 181 Kbps
Maximum bit rate                         : 239 Kbps
Channel(s)                               : 2 channels
Channel positions                        : Front: L R
Sampling rate                            : 48.0 KHz
Compression mode                         : Lossy
Stream size                              : 134 MiB (5%)
Title                                    : Original
Language                                 : English
Encoded date                             : UTC 2011-12-24 14:23:04
Tagged date                              : UTC 2011-12-24 14:23:18
Text #1
ID                                       : 5
Format                                   : Timed text
Muxing mode                              : sbtl
Codec ID                                 : tx3g
Duration                                 : 1h 39mn
Bit rate mode                            : Variable
Bit rate                                 : 89 bps
Stream size                              : 65.0 KiB (0%)
Language                                 : Russian
Encoded date                             : UTC 2011-12-24 14:23:17
Tagged date                              : UTC 2011-12-24 14:23:18
Text #2
ID                                       : 6
Format                                   : Timed text
Muxing mode                              : sbtl
Codec ID                                 : tx3g
Duration                                 : 1h 41mn
Bit rate mode                            : Variable
Bit rate                                 : 67 bps
Stream size                              : 50.3 KiB (0%)
Language                                 : English
Encoded date                             : UTC 2011-12-24 14:23:18
Tagged date                              : UTC 2011-12-24 14:23:18
Text #3
ID                                       : 7
Format                                   : Apple text
Codec ID                                 : text
Duration                                 : 1h 42mn
Bit rate mode                            : Variable
Bit rate                                 : 1 bps
Stream size                              : 558 Bytes (0%)
Encoded date                             : UTC 2011-12-25 14:28:59
Tagged date                              : UTC 2011-12-25 14:28:59

x264 log
Код:
Код:
x264 [info]: frame I:2491  Avg QP:16.77  size: 72339  PSNR Mean Y:47.64 U:49.51 V:50.75 Avg:48.28 Global:47.65
x264 [info]: frame P:82612 Avg QP:19.88  size: 23239  PSNR Mean Y:44.89 U:47.49 V:48.64 Avg:45.67 Global:44.91
x264 [info]: frame B:73547 Avg QP:21.49  size:  6421  PSNR Mean Y:44.50 U:47.22 V:48.45 Avg:45.25 Global:44.40
x264 [info]: consecutive B-frames: 23.9% 38.4% 12.7% 14.0%  8.7%  1.3%  1.1%
x264 [info]: mb I  I16..4: 37.6%  0.0% 62.4%
x264 [info]: mb P  I16..4: 28.3%  0.0%  0.0%  P16..4: 58.5%  0.0%  0.0%  0.0%  0.0%    skip:13.2%
x264 [info]: mb B  I16..4:  2.2%  0.0%  0.0%  B16..8: 29.1%  0.0%  0.0%  direct:15.0%  skip:53.6%  L0:30.1% L1:50.3% BI:19.6%
x264 [info]: final ratefactor: 18.83
x264 [info]: coded y,uvDC,uvAC intra: 45.9% 59.5% 22.1% inter: 21.7% 23.1% 1.4%
x264 [info]: i16 v,h,dc,p: 40% 22% 24% 14%
x264 [info]: i4 v,h,dc,ddl,ddr,vr,hd,vl,hu: 23% 17% 18%  4% 10%  7%  6%  7%  7%
x264 [info]: i8c dc,h,v,p: 52% 19% 23%  6%
x264 [info]: Weighted P-Frames: Y:2.7% UV:1.5%
x264 [info]: SSIM Mean Y:0.9816051 (17.353db)
x264 [info]: PSNR Mean Y:44.754 U:47.400 V:48.583 Avg:45.513 Global:44.698 kb/s:3448.89

Скриншоты

Скриншоты с iPad




Вернуться к началу
 Профиль Отправить личное сообщение  
 
   Похожие торренты   Автор   Торрент   Размер 
В этой теме нет новых непрочитанных сообщений. Один Дома / Home Alone [комедия, семейный, 1990] BDRip, Avo

salma3

72 | 13

1.46 ГБ

В этой теме нет новых непрочитанных сообщений. Пиксели / Pixels (Крис Коламбус) [фантастика, боевик, комедия, 2015] BDRip 720p, Dub+Sub [Лицензия]

Dracon

245 | 18

6.79 ГБ

В этой теме нет новых непрочитанных сообщений. Один дома 4 / Home alone 4 [Комедия, семейный, 2002] HDTVRip 720p, Mvo [Первый канал]

salma3

0 | 0

3.22 ГБ

В этой теме нет новых непрочитанных сообщений. Дом странных детей Мисс Перегрин / Miss Peregrine's Home for Peculiar Children (Фэнтези, драма, приключения, семейный, 2016) BDRip | iPad | iTunes

marya111

484 | 83

1.49 ГБ

В этой теме нет новых непрочитанных сообщений. Один дома 3 / Home Alone 3 [комедия, криминал, семейный, 1997] WEB-DLRip, Dub

salma3

0 | 0

1.32 ГБ

В этой теме нет новых непрочитанных сообщений. Пиксели / Pixels (Крис Коламбус) [фантастика, боевик, комедия, 2015] WEB-DL 720p, Dub+Sub [iTunes]

Dracon

2036 | 44

3.41 ГБ

В этой теме нет новых непрочитанных сообщений. Пиксели / Pixels (Крис Коламбус) [фантастика, боевик, комедия, 2015] BDRip-AVC, Dub+Sub [Лицензия]

Dracon

2955 | 181

1.46 ГБ


Начать новую тему Ответить на тему  [ 1 сообщение ] 




Для Мосгорсуда, Роскомнадзора и рекламодателей:: mosgorsud-torrent[собачка]yandex.ru
cron