Торрент файл
скачать торрент магнет ссылка Добавлен: 12 янв 2013, 23:56
Размер: 2.52 ГБ
Сидеров: 1
Личеров: 3
Автор

СообщениеДобавлено: 12 янв 2013, 23:56 

Не в сети
Супермодератор
Аватара пользователя
Дата регистрации:
11 апр 2010, 18:10
Спасибо: 5996 / 7
Сообщения: 56684
id="p-25224744-1">Пила: Игра на выживание / Saw



Год выпуска: 2004
Страна: США, Австралия
Жанр: ужасы, триллер, криминал, детектив
Продолжительность: 1:42:46
Перевод: Профессиональный (полное дублирование)
Режиссер: Джеймс Ван / James Wan
В ролях: Ли Уоннелл (Adam), Кэри Элвис (Dr. Lawrence Gordon), Дэнни Гловер (Detective David Tapp), Кен Люн (Detective Steven Sing), Дина Мейер (Kerry), Майк Баттерс (Paul), Пол Гутрехт (Mark), Майкл Эмерсон (Zepp Hindle), Бенито Мартинес (Brett), Шоуни Смит (Amanda), Макензи Вега (Diana Gordon), Моника Поттер (Alison Gordon)
Описание: Дэвид рассказывает детективу свою ужасающую историю того, как был похищен и вынужден играть в мерзкую игру выживания.

Качество: BDRip
Исходник: http://rutracker.org/forum/viewtopic.php?t=3542836
Формат: m4v
Видео кодек: H.264
Аудио кодек: AAC
Видео: 1024x576, 3000 Kbps, 23,976 fps
Аудио Rus: 48 kHz, AAC, 2ch, 165 kbps - Профессиональный (полное дублирование)
Аудио Rus: 48 kHz, AAC, 2ch, 165 kbps - Профессиональный (многоголосый, закадровый)
Аудио Eng: 48 kHz, AAC, 2ch, 165 kbps
MediaInfo
Код:
Код:
Полное имя : F:\iPad\Saw.m4v
Формат : MPEG-4
Профиль формата : Base Media / Version 2
Идентификатор кодека : mp42
Размер файла : 2,52 Гбайт
Продолжительность : 1 ч. 56 м.
Общий поток : 3094 Кбит/сек
Название фильма : Пила
Исполнитель : Джеймс Ван
Жанр : Horror
Дата записи : UTC 2005-02-15 08:00:00
Дата кодирования : UTC 2012-02-16 07:45:00
Дата пометки : UTC 2012-02-16 08:53:43
Программа кодирования : X Lossless Decoder 20100401, QuickTime 7.6.6, Constrained VBR 160 kbps
Обложка : Yes
desc : Дэвид рассказывает детективу свою ужасающую историю того, как был похищен и вынужден играть в мерзкую игру выживания.
ldes : Дэвид рассказывает детективу свою ужасающую историю того, как был похищен и вынужден играть в мерзкую игру выживания.
hdvd : 1
stik : 9
rtng : 0
cnID : 265727087
xid : iPad:vendor_id:2005-251613
iTunEXTC : mpaa|R|400|
iTunMOVI : / / / / cast / / / name / Ли Уоннелл / / / name / Кэри Элвес / / / name / Дэнни Гловер / / / name / Кен Леунг / / / name / Дина Мейер / / / name / Майк Баттерс / / / name / Пол Гутрехт / / / name / Майкл Эмерсон / / / name / Бенито Мартинес / / / name / Шоуни Смит / / / name / Моника Поттер / / / name / Нед Беллами / / / directors / / / name / Джеймс Ван / / / producers / / / name / Даррен МакФарлэйн / / / screenwriters / / / name / Ли Уоннелл / / / /
Видео #1
Идентификатор : 1
Формат : AVC
Формат/Информация : Advanced Video Codec
Профиль формата : [email protected]
Параметр CABAC формата : Да
Параметр ReFrames формата : 8 кадры
Идентификатор кодека : avc1
Идентификатор кодека/Информация : Advanced Video Coding
Продолжительность : 1 ч. 42 м.
Вид битрейта : Переменный
Битрейт : 3000 Кбит/сек
Ширина : 1024 пикс.
Высота : 576 пикс.
Соотношение сторон : 16:9
Режим частоты кадров : Переменный
Частота кадров : 23,976 кадр/сек
Минимальная частота кадров : 23,810 кадр/сек
Максимальная частота кадров : 24,390 кадр/сек
Цветовое пространство : YUV
Подвыборка цветности : 4:2:0
Битовая глубина : 8 бит
Тип развёртки : Прогрессивная
Бит/(Пиксели*Кадры) : 0.212
Размер потока : 2,15 Гбайт (85%)
Библиотека кодирования : x264 core 112 r1834 a51816a
Настройки программы : cabac=1 / ref=8 / deblock=1:-2:-2 / analyse=0x3:0x133 / me=umh / subme=10 / psy=1 / psy_rd=1.00:0.10 / mixed_ref=1 / me_range=48 / chroma_me=1 / trellis=2 / 8x8dct=1 / cqm=0 / deadzone=21,11 / fast_pskip=0 / chroma_qp_offset=-3 / threads=3 / sliced_threads=0 / nr=0 / decimate=1 / interlaced=0 / constrained_intra=0 / bframes=5 / b_pyramid=2 / b_adapt=2 / b_bias=0 / direct=3 / weightb=1 / open_gop=0 / weightp=2 / keyint=250 / keyint_min=23 / scenecut=40 / intra_refresh=0 / rc_lookahead=250 / rc=2pass / mbtree=1 / bitrate=3000 / ratetol=1.0 / qcomp=0.60 / qpmin=10 / qpmax=51 / qpstep=4 / cplxblur=20.0 / qblur=0.5 / ip_ratio=1.40 / aq=1:1.00
Дата кодирования : UTC 2012-02-16 07:45:00
Дата пометки : UTC 2012-02-16 07:46:47
Видео #2
Идентификатор : 8
Формат : JPEG
Идентификатор кодека : jpeg
Продолжительность : 1 ч. 56 м.
Duration_LastFrame : -2 м. 13 с.
Вид битрейта : Переменный
Битрейт : 977 бит/сек
Ширина : 640 пикс.
Высота : 360 пикс.
Соотношение сторон : 16:9
Режим частоты кадров : Постоянный
Частота кадров : 0,003 кадр/сек
Метод сжатия : С потерями
Бит/(Пиксели*Кадры) : 1.413
Размер потока : 834 Кбайт (0%)
Дата кодирования : UTC 2012-02-16 07:47:17
Дата пометки : UTC 2012-02-16 07:47:18
Аудио #1
Идентификатор : 4
Формат : AAC
Формат/Информация : Advanced Audio Codec
Профиль формата : LC
Идентификатор кодека : 40
Продолжительность : 1 ч. 42 м.
Вид битрейта : Переменный
Битрейт : 165 Кбит/сек
Максимальный битрейт : 251 Кбит/сек
Канал(ы) : 2 канала(ов)
Расположение каналов : Front: L R
Частота : 48,0 КГц
Метод сжатия : С потерями
Размер потока : 121 Мбайт (5%)
Язык : Russian
Дата кодирования : UTC 2012-02-16 07:45:00
Дата пометки : UTC 2012-02-16 07:46:53
Аудио #2
Идентификатор : 5
Формат : AAC
Формат/Информация : Advanced Audio Codec
Профиль формата : LC
Идентификатор кодека : 40
Продолжительность : 1 ч. 42 м.
Вид битрейта : Переменный
Битрейт : 165 Кбит/сек
Максимальный битрейт : 269 Кбит/сек
Канал(ы) : 2 канала(ов)
Расположение каналов : Front: L R
Частота : 48,0 КГц
Метод сжатия : С потерями
Размер потока : 121 Мбайт (5%)
Язык : Russian
Дата кодирования : UTC 2012-02-16 07:45:00
Дата пометки : UTC 2012-02-16 07:47:00
Аудио #3
Идентификатор : 6
Формат : AAC
Формат/Информация : Advanced Audio Codec
Профиль формата : LC
Идентификатор кодека : 40
Продолжительность : 1 ч. 42 м.
Вид битрейта : Переменный
Битрейт : 165 Кбит/сек
Максимальный битрейт : 258 Кбит/сек
Канал(ы) : 2 канала(ов)
Расположение каналов : Front: L R
Частота : 48,0 КГц
Метод сжатия : С потерями
Размер потока : 121 Мбайт (5%)
Язык : English
Дата кодирования : UTC 2012-02-16 07:45:00
Дата пометки : UTC 2012-02-16 07:47:06
Текст #1
Идентификатор : 2
Формат : Timed text
Режим смешивания : sbtl
Идентификатор кодека : tx3g
Продолжительность : 1 ч. 38 м.
Вид битрейта : Переменный
Битрейт : 64 бит/сек
Размер потока : 46,6 Кбайт (0%)
Язык : Russian
Дата кодирования : UTC 2012-02-16 07:45:00
Дата пометки : UTC 2012-02-16 07:46:47
Текст #2
Идентификатор : 3
Формат : Timed text
Режим смешивания : sbtl
Идентификатор кодека : tx3g
Продолжительность : 1 ч. 38 м.
Вид битрейта : Переменный
Битрейт : 42 бит/сек
Размер потока : 30,7 Кбайт (0%)
Язык : English
Дата кодирования : UTC 2012-02-16 07:45:00
Дата пометки : UTC 2012-02-16 07:46:47
Текст #3
Идентификатор : 9
Формат : Apple text
Идентификатор кодека : text
Продолжительность : 1 ч. 42 м.
Вид битрейта : Постоянный
Битрейт : 1 бит/сек
Размер потока : 504 байт (0%)
Дата кодирования : UTC 2012-02-16 08:53:43
Дата пометки : UTC 2012-02-16 08:53:43
Меню
00:00:00.000 : Chapter 01
00:05:00.000 : Chapter 02
00:10:00.000 : Chapter 03
00:15:00.000 : Chapter 04
00:20:00.000 : Chapter 05
00:25:00.000 : Chapter 06
00:30:00.000 : Chapter 07
00:35:00.000 : Chapter 08
00:40:00.000 : Chapter 09
00:45:00.000 : Chapter 10
00:50:00.000 : Chapter 11
00:55:00.000 : Chapter 12
01:00:00.000 : Chapter 13
01:05:00.000 : Chapter 14
01:10:00.000 : Chapter 15
01:15:00.000 : Chapter 16
01:20:00.000 : Chapter 17
01:25:00.000 : Chapter 18
01:30:00.000 : Chapter 19
01:35:00.000 : Chapter 20
01:40:00.000 : Chapter 21

Скриншоты



Вернуться к началу
 Профиль Отправить личное сообщение  
 
   Похожие торренты   Автор   Торрент   Размер 
В этой теме нет новых непрочитанных сообщений. Пила: Игра на выживание / Saw [ужасы, детектив, триллер, 2004] BDRip 720p, Dub [Режиссерская версия]

salma3

0 | 0

8.42 ГБ

В этой теме нет новых непрочитанных сообщений. Пила 4 / Saw IV [ужасы, триллер, детектив, 2007] BDRip 720p, Dub [Режиссерская версия]

salma3

0 | 0

7.76 ГБ

В этой теме нет новых непрочитанных сообщений. Пила 6 / Saw VI [ужасы, детектив, триллер, 2009] BDRip 720p, Dub [Режиссерская версия]

salma3

0 | 0

5.76 ГБ

В этой теме нет новых непрочитанных сообщений. Пила 3 / Saw III [ужасы, детектив, триллер, 2006] BDRip 720p, Dub [Режиссерская версия]

salma3

0 | 0

9.71 ГБ

В этой теме нет новых непрочитанных сообщений. Пила 5 / Saw V [ужасы, детектив, триллер, 2008] BDRip 720p, Dub [Режиссерская версия]

salma3

0 | 0

6.58 ГБ

В этой теме нет новых непрочитанных сообщений. Пила 2 / Saw II [ужасы, детектив, триллер, 2005] BDRip 720p, Dub [Режиссерская версия]

salma3

0 | 0

8.84 ГБ

В этой теме нет новых непрочитанных сообщений. Забирая жизни / Taking Lives [триллер, криминал, детектив, 2004] BDRip 720p, Dub [Режиссерская версия] [iPad]

salma3

0 | 0

1.64 ГБ


Начать новую тему Ответить на тему  [ 1 сообщение ] 




Для Мосгорсуда, Роскомнадзора и рекламодателей:: mosgorsud-torrent[собачка]yandex.ru
cron
cron