Торрент файл
скачать торрент магнет ссылка Добавлен: 12 янв 2013, 23:56
Размер: 1.52 ГБ
Сидеров: 3
Личеров: 2
Автор

СообщениеДобавлено: 12 янв 2013, 23:56 

Не в сети
Супермодератор
Аватара пользователя
Дата регистрации:
11 апр 2010, 18:10
Спасибо: 5995 / 7
Сообщения: 56685
id="p-25224744-1">Третий Лишний / Ted

Год выпуска: 2012
Страна: США
Жанр: фэнтези, комедия
Продолжительность: 01:46:03
Рейтинг MPAA: R
Рейтинг КиноПоиск: 7.322
Рейтинг IMDb: 7.5
Перевод: Профессиональный (дублированный)
Оригинальная аудиодорожка: есть
Cубтитры: русские и английские
Режиссёр: Сет МакФарлейн
Сценарий: Сет МакФарлейн, Алек Салкин, Веллесли Вайлд
Продюссер: Джейсон Кларк, Джон Джейкобс, Сет МакФарлейн
В ролях: Марк Уолберг, Мила Кунис, Сет МакФарлейн, Джоэль МакХэйл, Джованни Рибизи, Патрик Варбертон, Мэтт Уолш, Джессика Барт, Аэдин Минкс, Билл Смитрович
Описание:
Джон влюблен в красавицу Лори, у него отличная работа и большие планы на будущее. Но в их отношения вмешивается третий, давний друг Джона — Тед. Он отрывается сутки напролет, предпочитает случайные связи и не желает терять друга. Но никто на самом деле не знает на что он способен, ведь Тед — большой плюшевый медведь.
Качество исходника: BDRip 1080p
Качество: HDRip
Разрешение: 480p
Формат: M4V
Видео: AVC at 1800 Кбит/сек, [email protected] (1.852) at 23.976 fps
Аудио: AAC at 128 Кбит/сек, 2 канала, 48,0 КГц, Русский Дублированный
Аудио №2: AAC at 128 Кбит/сек, 2 канала, 48,0 КГц, Английский
iTunes Meta Tags
Код:
Media Type: Movie
XID: Apple:vendor_id:2012-507817
Content ID: 507817
Copyright: Steamteam
ScreenWriters: Сет МакФарлейн, Алек Салкин, Веллесли Вайлд
Producers: Джейсон Кларк, Джон Джейкобс, Сет МакФарлейн
Director: Сет МакФарлейн
Cast: Марк Уолберг, Мила Кунис, Сет МакФарлейн
Rating: R
Long Description: Джон влюблен в красавицу Лори, у него отличная работа и большие планы на будущее. Но в их отношения вмешивается третий, давний друг Джона — Тед. Он отрывается сутки напролет, предпочитает случайные связи и не желает терять друга. Но никто на самом деле не знает на что он способен, ведь Тед — большой плюшевый медведь.
Description: Джон влюблен в красавицу Лори, у него отличная работа и большие планы на будущее. Но в их отношения вмешивается третий, давний друг Джона — Тед. Он отрывается сутки напролет, предпочитает случайные связи и не желает терять друга. .
Release Date: 2012-06-29
Genre: Comedy
Artist: Сет МакФарлейн
Name: Ted

MediaInfo
Код:
Общее
Полное имя: E:\Ted.m4v
Формат: MPEG-4
Идентификатор кодека: M4V
Размер файла: 1,52 Гбайт
Продолжительность: 1 ч. 46 м.
Режим общего битрейта: Переменный
Общий поток: 2058 Кбит/сек
Название фильма: Ted
Исполнитель: Сет МакФарлейн
Жанр: Comedy
Дата записи: 2012-06-29
Дата кодирования: UTC 2012-11-09 16:01:02
Дата пометки: UTC 2012-11-09 16:03:57
Программа кодирования: MkvToMp4 [www.mkvtomp4.ru] version 0.221a
Правообладатель: Steamteam
Обложка: Yes
desc: Джон влюблен в красавицу Лори, у него отличная работа и большие планы на будущее. Но в их отношения вмешивается третий, давний друг Джона — Тед. Он отрывается сутки напролет, предпочитает случайные связи и не желает терять друга. .
ldes: Джон влюблен в красавицу Лори, у него отличная работа и большие планы на будущее. Но в их отношения вмешивается третий, давний друг Джона — Тед. Он отрывается сутки напролет, предпочитает случайные связи и не желает терять друга. Но никто на самом деле не знает на что он способен, ведь Тед — большой плюшевый медведь.
hdvd: 0
stik: 9
cnID: 507817
xid: Apple:vendor_id:2012-507817
iTunEXTC: mpaa|R|400|
iTunMOVI: <?xml version="1.0" encoding="UTF-8"?> / <!DOCTYPE plist PUBLIC "-/Apple/DTD PLIST 1.0/EN" "http://www.apple.com/DTDs/PropertyList-1.0.dtd"> / <plist version="1.0"> /<dict> /<key>cast</key> /<array> /<dict> /<key>name</key> /<string>Марк Уолберг</string> /</dict> /<dict> /<key>name</key> /<string>Мила Кунис</string> /</dict> /<dict> /<key>name</key> /<string>Сет МакФарлейн</string> /</dict> /</array> /<key>directors</key> /<array> /<dict> /<key>name</key> /<string>Сет МакФарлейн</string> /</dict> /</array> /<key>producers</key> /<array> /<dict> /<key>name</key> /<string>Джейсон Кларк</string> /</dict> /<dict> /<key>name</key> /<string>Джон Джейкобс</string> /</dict> /<dict> /<key>name</key> /<string>Сет МакФарлейн</string> /</dict> /</array> /<key>screenwriters</key> /<array> /<dict> /<key>name</key> /<string>Сет МакФарлейн</string> /</dict> /<dict> /<key>name</key> /<string>Алек Салкин</string> /</dict> /<dict> /<key>name</key> /<string>Веллесли Вайлд</string> /</dict> /</array> /</dict> / </plist>
Видео
Идентификатор: 1
Формат: AVC
Формат/Информация: Advanced Video Codec
Профиль формата: [email protected]
Параметр CABAC формата: Нет
Параметр ReFrames формата: 2 кадра
Идентификатор кодека: avc1
Идентификатор кодека/Информация: Advanced Video Coding
Продолжительность: 1 ч. 46 м.
Битрейт: 1800 Кбит/сек
Максимальный битрейт: 13,1 Мбит/сек
Ширина: 640 пикселей
Высота: 460 пикселей
Соотношение сторон: 1,85:1
Режим частоты кадров: Переменный
Частота кадров: 23,976 кадра/сек
Минимальная частота кадров: 23,810 кадра/сек
Максимальная частота кадров: 24,390 кадра/сек
Цветовое пространство: YUV
Субдискретизация насыщенности: 4:2:0
Битовая глубина: 8 бит
Тип развёртки: Прогрессивная
Бит/(Пиксели*Кадры): 0.255
Размер потока: 1,33 Гбайт (87%)
Библиотека кодирования: x264 core 120
Настройки программы: cabac=0 / ref=2 / deblock=1:0:0 / analyse=0x1:0x111 / me=umh / subme=8 / psy=1 / psy_rd=1.00:0.00 / mixed_ref=1 / me_range=16 / chroma_me=1 / trellis=0 / 8x8dct=0 / cqm=0 / deadzone=21,11 / fast_pskip=1 / chroma_qp_offset=-2 / threads=6 / sliced_threads=0 / nr=0 / decimate=1 / interlaced=0 / bluray_compat=0 / constrained_intra=0 / bframes=0 / weightp=0 / keyint=240 / keyint_min=24 / scenecut=40 / intra_refresh=0 / rc_lookahead=40 / rc=2pass / mbtree=1 / bitrate=1800 / ratetol=1.0 / qcomp=0.60 / qpmin=3 / qpmax=69 / qpstep=4 / cplxblur=20.0 / qblur=0.5 / ip_ratio=1.40 / aq=1:1.00
Язык: English
Дата кодирования: UTC 2012-11-09 16:01:02
Дата пометки: UTC 2012-11-09 16:02:39
Основные цвета: BT.709
Характеристики трансфера: BT.709
Коэффициенты матрицы: BT.709
Аудио #1
Идентификатор: 2
Формат: AAC
Формат/Информация: Advanced Audio Codec
Профиль формата: LC
Идентификатор кодека: 40
Продолжительность: 1 ч. 46 м.
Вид битрейта: Переменный
Битрейт: 128 Кбит/сек
Максимальный битрейт: 249 Кбит/сек
Каналы: 2 канала
Расположение каналов: Front: L R
Частота: 48,0 КГц
Метод сжатия: С потерями
Размер потока: 96,8 Мбайт (6%)
Язык: Russian
Дата кодирования: UTC 2012-11-09 16:02:17
Дата пометки: UTC 2012-11-09 16:02:39
Аудио #2
Идентификатор: 3
Формат: AAC
Формат/Информация: Advanced Audio Codec
Профиль формата: LC
Идентификатор кодека: 40
Продолжительность: 1 ч. 46 м.
Вид битрейта: Переменный
Битрейт: 128 Кбит/сек
Максимальный битрейт: 243 Кбит/сек
Каналы: 2 канала
Расположение каналов: Front: L R
Частота: 48,0 КГц
Метод сжатия: С потерями
Размер потока: 96,8 Мбайт (6%)
Язык: English
Дата кодирования: UTC 2012-11-09 16:02:28
Дата пометки: UTC 2012-11-09 16:02:39
Текст #1
Идентификатор: 4
Формат: Timed text
Режим смешивания: sbtl
Идентификатор кодека: tx3g
Продолжительность: 1 ч. 40 м.
Вид битрейта: Переменный
Битрейт: 117 бит/сек
Размер потока: 86,0 Кбайт (0%)
Язык: Russian
Дата кодирования: UTC 2012-11-09 16:02:39
Дата пометки: UTC 2012-11-09 16:02:39
Текст #2
Идентификатор: 5
Формат: Timed text
Режим смешивания: sbtl
Идентификатор кодека: tx3g
Продолжительность: 1 ч. 40 м.
Вид битрейта: Переменный
Битрейт: 86 бит/сек
Размер потока: 63,4 Кбайт (0%)
Язык: English
Дата кодирования: UTC 2012-11-09 16:02:39
Дата пометки: UTC 2012-11-09 16:02:39
Текст #3
Идентификатор: 6
Формат: Apple text
Идентификатор кодека: text
Продолжительность: 1 ч. 46 м.
Вид битрейта: Переменный
Битрейт: 1 бит/сек
Размер потока: 471 байт (0%)
Дата кодирования: UTC 2012-11-09 16:03:52
Дата пометки: UTC 2012-11-09 16:03:52

x264 лог
Код:
x264 [info]: frame I:2683Avg QP:15.19size: 46811PSNR Mean Y:48.13 U:51.45 V:50.60 Avg:48.86 Global:48.56
x264 [info]: frame P:149885 Avg QP:17.08size:8700PSNR Mean Y:45.88 U:49.61 V:48.53 Avg:46.66 Global:46.21
x264 [info]: mb II16..4: 17.4%0.0% 82.6%
x264 [info]: mb PI16..4:0.6%0.0%1.6%P16..4: 44.6% 24.0% 10.2%0.0%0.0%skip:19.0%
x264 [info]: coded y,uvDC,uvAC intra: 82.0% 85.5% 70.3% inter: 27.2% 21.7% 7.0%
x264 [info]: i16 v,h,dc,p: 46% 13%8% 33%
x264 [info]: i4 v,h,dc,ddl,ddr,vr,hd,vl,hu: 11%6%4% 13% 17% 16% 12% 12%9%
x264 [info]: i8c dc,h,v,p: 50% 16% 24% 10%
x264 [info]: ref P L0: 69.9% 30.1%
x264 [info]: SSIM Mean Y:0.9856963 (18.446db)
x264 [info]: PSNR Mean Y:45.916 U:49.639 V:48.570 Avg:46.699 Global:46.241 kb/s:1797.27

Скриншоты



Вернуться к началу
 Профиль Отправить личное сообщение  
 
   Похожие торренты   Автор   Торрент   Размер 
В этой теме нет новых непрочитанных сообщений. Третий лишний 2 / Ted 2 (Сет МакФарлейн) [комедия, 2015] WEB-DL 1080p, Dub [iTunes]

Dracon

97 | 6

3.83 ГБ

В этой теме нет новых непрочитанных сообщений. Третий лишний 2  / Ted 2 (Сет МакФарлейн) [комедия, 2015] BDRip, Dub [iTunes]

Dracon

23 | 7

1.47 ГБ

В этой теме нет новых непрочитанных сообщений. Третий лишний 2  / Ted 2 (Сет МакФарлейн) [комедия, 2015] WEB-DL 720p, Dub [iTunes]

Dracon

374 | 40

3.51 ГБ

В этой теме нет новых непрочитанных сообщений. Третий лишний 2 / Ted 2 (Сет МакФарлейн) [комедия, 2015] WEB-DLRip, Dub [iTunes]

slawa4155

43 | 2

2.05 ГБ

В этой теме нет новых непрочитанных сообщений. Третий лишний 2 / Ted 2 (Сет МакФарлейн) [комедия, 2015] WEBRip 1080p, dub [Чистый звук]

slawa4155

В этой теме нет новых непрочитанных сообщений. Третий лишний / Ted [фэнтези, комедия, 2012] BDRip 720p, Dub [iPad] [Лицензия]

salma3

16 | 10

2.67 ГБ

В этой теме нет новых непрочитанных сообщений. Третий лишний / The Third Wheel [мелодрама, комедия, 2002] WEB-DLRip, Dvo

salma3

37 | 9

1.45 ГБ


Начать новую тему Ответить на тему  [ 1 сообщение ] 




Для Мосгорсуда, Роскомнадзора и рекламодателей:: mosgorsud-torrent[собачка]yandex.ru
cron