Торрент файл
скачать торрент магнет ссылка Добавлен: 12 янв 2013, 23:56
Размер: 3.36 ГБ
Сидеров: 11
Личеров: 5
Автор

СообщениеДобавлено: 12 янв 2013, 23:56 

Не в сети
Супермодератор
Аватара пользователя
Дата регистрации:
11 апр 2010, 18:10
Спасибо: 5996 / 7
Сообщения: 56684
id="p-25224744-1">
«V» значит Вендетта / V for Vendetta«Свобода навсегда!»


Страна: США , Германия , Великобритания
Жанр: фантастика, боевик, триллер
Год выпуска: 2006
Продолжительность: 02:12:32

Перевод #1: Профессиональный (полное дублирование)
Перевод #2: Профессиональный (многоголосый закадровый)
Оригинальная аудиодорожка: Английский
Cубтитры: Русские, Английские
Режиссер: Джеймс МакТиг / James McTeigue

В ролях: Натали Портман (Evey Hammond), Хьюго Уивинг (V), Стивен Ри (Inspector Finch), Стивен Фрай (Deitrich), Джон Хёрт (Adam Sutler), Тим Пиготт-Смит (Creedy), Руперт Грейвз (Dominic), Роджер Аллам (Lewis Prothero), Бен Майлз (Dascomb), Шинед Кьюсак (Delia Surridge), Наташа Уайтман (Valerie), Джон Стэндинг (Lilliman)
Дублёры: Татьяна Шитова (Evey Hammond), Владимир Антоник (V), Алексей Рязанцев (Inspector Finch), Алексей Колган (Deitrich), Владимир Еремин (Adam Sutler), Александр Новиков (Creedy), Всеволод Кузнецов (Dominic), Александр Клюквин (Lewis Prothero), Сергей Бурунов (Dascomb), Людмила Ильина, Мария Овчинникова, Александр Рыжков

Описание: Альтернативное будущее. В Англии, после страшной эпидемии неизвестного вируса, повергшей страну в хаос, устанавливается жестокая диктатура властного канцлера со всеми сопутствующими прелестями: комендантский час, всевластие членов партии над простыми людьми и, конечно, сотни тайных стукачей-осведомителей. Однажды ночью в Лондоне появляется борец за свободу, известный как V, который начинает партизанскую войну с режимом в попытке вернуть народу отнятую у него свободу. В этой войне он привлекает на свою сторону молодую женщину, которую он вырвал из лап тайной полиции.
Рейтинг
imdb.com: 8.20 (298 939)
MPAA: R - Лицам до 17 лет обязательно присутствие взрослого
Качество видео: BDRip - Исходник BD Remux
Формат видео: m4v
Видео кодек: H.264
Аудио кодек: AAC
Видео: 1280х528 (2.40:1), 23,976 fps, H.264 3150 kbps avg, 0.194 bit/pixel
Аудио #1: Russian, 48,0 kHz, AAC LC, 2 ch, 172 kbps avg | DUB
Аудио #2: Russian, 48,0 kHz, AAC LC, 2 ch, 147 kbps avg | MVO
Аудио #3: English, 48,0 kHz, AAC LC, 2 ch, 150 kbps avg | Original
MediaInfo
Код:
Код:
General
Complete name                            : D:\iPad\V for Vendetta\V.for.Vendetta.2005.BDRip.m4v
Format                                   : MPEG-4
Codec ID                                 : M4V
File size                                : 3.36 GiB
Duration                                 : 2h 12mn
Overall bit rate mode                    : Variable
Overall bit rate                         : 3 627 Kbps
Movie name                               : «V» значит Вендетта
Performer                                : Джеймс МакТиг
Genre                                    : фантастика, боевик, триллер
Recorded date                            : UTC 2006-02-13 07:00:00
Encoded date                             : UTC 2011-11-19 02:33:18
Tagged date                              : UTC 2011-11-20 03:09:51
Writing application                      : MkvToMp4 [www.mkvtomp4.ru] version 0.217
Cover                                    : Yes
soar                                     : Джеймс МакТиг
desc                                     : Альтернативное будущее. В Англии, после страшной эпидемии неизвестного вируса, повергшей страну в хаос, устанавливается жестокая диктатура властного канцлера со всеми сопутствующими прелестями
ldes                                     : Альтернативное будущее. В Англии, после страшной эпидемии неизвестного вируса, повергшей страну в хаос, устанавливается жестокая диктатура властного канцлера со всеми сопутствующими прелестями: комендантский час, всевластие членов партии над простыми людьми и, конечно, сотни тайных стукачей-осведомителей. Однажды ночью в Лондоне появляется борец за свободу, известный как V, который начинает партизанскую войну с режимом в попытке вернуть народу отнятую у него свободу. В этой войне он привлекает на свою сторону молодую женщину, которую он вырвал из лап тайной полиции.
hdvd                                     : 1
stik                                     : 9
cnID                                     : 284441731
xid                                      : RG-Apple:vendor_id:2006-86208
iTunEXTC                                 : mpaa|R|400|
iTunMOVI                                 : <?xml version="1.0" encoding="UTF-8"?> / <!DOCTYPE plist PUBLIC "-/Apple/DTD PLIST 1.0/EN" "http:/www.apple.com/DTDs/PropertyList-1.0.dtd"> / <plist version="1.0"> /  <dict> /   <key>cast</key> /   <array> /    <dict> /     <key>name</key> /     <string>Натали Портман</string> /    </dict> /    <dict> /     <key>name</key> /     <string>Хьюго Уивинг</string> /    </dict> /    <dict> /     <key>name</key> /     <string>Стивен Ри</string> /    </dict> /    <dict> /     <key>name</key> /     <string>Стивен Фрай</string> /    </dict> /    <dict> /     <key>name</key> /     <string>Джон Хёрт</string> /    </dict> /    <dict> /     <key>name</key> /     <string>Тим Пиготт-Смит</string> /    </dict> /    <dict> /     <key>name</key> /     <string>Руперт Грейвз</string> /    </dict> /    <dict> /     <key>name</key> /     <string>Роджер Аллам</string> /    </dict> /    <dict> /     <key>name</key> /     <string>Бен Майлз</string> /    </dict> /    <dict> /     <key>name</key> /     <string>Шинед Кьюсак</string> /    </dict> /   </array> /   <key>directors</key> /   <array> /    <dict> /     <key>name</key> /     <string>Джеймс МакТиг</string> /    </dict> /   </array> /   <key>producers</key> /   <array> /    <dict> /     <key>name</key> /     <string>Джессика Алан</string> /    </dict> /    <dict> /     <key>name</key> /     <string>Чарли Вебкен</string> /    </dict> /    <dict> /     <key>name</key> /     <string>Грант Хилл</string> /    </dict> /   </array> /   <key>screenwriters</key> /   <array> /    <dict> /     <key>name</key> /     <string>Энди Вачовски</string> /    </dict> /    <dict> /     <key>name</key> /     <string>Лана Вачовски</string> /    </dict> /    <dict> /     <key>name</key> /     <string>Дэвид Ллойд</string> /    </dict> /   </array> /  </dict> / </plist>
Video
ID                                       : 1
Format                                   : AVC
Format/Info                              : Advanced Video Codec
Format profile                           : [email protected]
Format settings, CABAC                   : Yes
Format settings, ReFrames                : 9 frames
Codec ID                                 : avc1
Codec ID/Info                            : Advanced Video Coding
Duration                                 : 2h 12mn
Bit rate                                 : 3 150 Kbps
Maximum bit rate                         : 18.0 Mbps
Width                                    : 1 280 pixels
Height                                   : 528 pixels
Display aspect ratio                     : 2.40:1
Frame rate mode                          : Variable
Frame rate                               : 23.976 fps
Minimum frame rate                       : 23.810 fps
Maximum frame rate                       : 24.390 fps
Color space                              : YUV
Chroma subsampling                       : 4:2:0
Bit depth                                : 8 bits
Scan type                                : Progressive
Bits/(Pixel*Frame)                       : 0.194
Stream size                              : 2.92 GiB (87%)
Writing library                          : x264 core 112
Encoding settings                        : cabac=1 / ref=9 / deblock=1:0:0 / analyse=0x3:0x113 / me=umh / subme=9 / psy=1 / psy_rd=1.00:0.00 / mixed_ref=1 / me_range=24 / chroma_me=1 / trellis=1 / 8x8dct=1 / cqm=0 / deadzone=21,11 / fast_pskip=1 / chroma_qp_offset=-2 / threads=12 / sliced_threads=0 / nr=0 / decimate=1 / interlaced=0 / constrained_intra=0 / bframes=6 / b_pyramid=2 / b_adapt=1 / b_bias=0 / direct=1 / weightb=1 / open_gop=0 / weightp=2 / keyint=240 / keyint_min=23 / scenecut=40 / intra_refresh=0 / rc_lookahead=40 / rc=2pass / mbtree=1 / bitrate=3150 / ratetol=1.0 / qcomp=0.60 / qpmin=3 / qpmax=51 / qpstep=4 / cplxblur=20.0 / qblur=0.5 / ip_ratio=1.40 / aq=1:1.00
Language                                 : English
Encoded date                             : UTC 2011-11-19 02:33:18
Tagged date                              : UTC 2011-11-19 02:55:49
Color primaries                          : BT.709-5, BT.1361, IEC 61966-2-4, SMPTE RP177
Transfer characteristics                 : BT.709-5, BT.1361
Matrix coefficients                      : BT.709-5, BT.1361, IEC 61966-2-4 709, SMPTE RP177
Audio #1
ID                                       : 2
Format                                   : AAC
Format/Info                              : Advanced Audio Codec
Format profile                           : LC
Codec ID                                 : 40
Duration                                 : 2h 12mn
Bit rate mode                            : Variable
Bit rate                                 : 172 Kbps
Maximum bit rate                         : 268 Kbps
Channel(s)                               : 2 channels
Channel positions                        : Front: L R
Sampling rate                            : 48.0 KHz
Compression mode                         : Lossy
Stream size                              : 163 MiB (5%)
Title                                    : DUB
Language                                 : Russian
Encoded date                             : UTC 2011-11-19 02:34:45
Tagged date                              : UTC 2011-11-19 02:55:49
Audio #2
ID                                       : 3
Format                                   : AAC
Format/Info                              : Advanced Audio Codec
Format profile                           : LC
Codec ID                                 : 40
Duration                                 : 2h 12mn
Bit rate mode                            : Variable
Bit rate                                 : 147 Kbps
Maximum bit rate                         : 236 Kbps
Channel(s)                               : 2 channels
Channel positions                        : Front: L R
Sampling rate                            : 48.0 KHz
Compression mode                         : Lossy
Stream size                              : 139 MiB (4%)
Title                                    : MVO
Language                                 : Russian
Encoded date                             : UTC 2011-11-19 02:40:53
Tagged date                              : UTC 2011-11-19 02:55:49
Audio #3
ID                                       : 4
Format                                   : AAC
Format/Info                              : Advanced Audio Codec
Format profile                           : LC
Codec ID                                 : 40
Duration                                 : 2h 12mn
Bit rate mode                            : Variable
Bit rate                                 : 150 Kbps
Maximum bit rate                         : 236 Kbps
Channel(s)                               : 2 channels
Channel positions                        : Front: L R
Sampling rate                            : 48.0 KHz
Compression mode                         : Lossy
Stream size                              : 142 MiB (4%)
Title                                    : Original
Language                                 : English
Encoded date                             : UTC 2011-11-19 02:45:38
Tagged date                              : UTC 2011-11-19 02:55:49
Text #1
ID                                       : 5
Format                                   : Timed text
Muxing mode                              : sbtl
Codec ID                                 : tx3g
Duration                                 : 2h 12mn
Bit rate mode                            : Variable
Bit rate                                 : 135 bps
Stream size                              : 130 KiB (0%)
Language                                 : Russian
Encoded date                             : UTC 2011-11-19 02:55:48
Tagged date                              : UTC 2011-11-19 02:55:49
Text #2
ID                                       : 6
Format                                   : Timed text
Muxing mode                              : sbtl
Codec ID                                 : tx3g
Duration                                 : 2h 4mn
Bit rate mode                            : Variable
Bit rate                                 : 95 bps
Stream size                              : 86.8 KiB (0%)
Language                                 : English
Encoded date                             : UTC 2011-11-19 02:55:49
Tagged date                              : UTC 2011-11-19 02:55:49
Text #3
ID                                       : 7
Format                                   : Apple text
Codec ID                                 : text
Duration                                 : 2h 12mn
Bit rate mode                            : Variable
Bit rate                                 : 1 bps
Stream size                              : 783 Bytes (0%)
Encoded date                             : UTC 2011-11-20 03:09:39
Tagged date                              : UTC 2011-11-20 03:09:39

x264 log
Код:
Код:
x264 [info]: frame I:2871  Avg QP:14.17  size: 81004  PSNR Mean Y:49.57 U:51.17 V:54.12 Avg:50.16 Global:49.66
x264 [info]: frame P:101144 Avg QP:16.75  size: 22133  PSNR Mean Y:47.63 U:51.39 V:54.92 Avg:48.24 Global:47.80
x264 [info]: frame B:86649 Avg QP:18.51  size:  7610  PSNR Mean Y:47.15 U:49.69 V:53.21 Avg:47.77 Global:47.09
x264 [info]: consecutive B-frames: 28.4% 33.6%  6.9%  7.5% 17.5%  4.3%  1.8%
x264 [info]: mb I  I16..4: 10.4% 78.0% 11.6%
x264 [info]: mb P  I16..4:  1.3%  4.9%  0.6%  P16..4: 42.6% 26.3% 14.7%  0.0%  0.0%    skip: 9.7%
x264 [info]: mb B  I16..4:  0.1%  0.3%  0.0%  B16..8: 41.4%  9.7%  1.9%  direct: 3.6%  skip:43.0%  L0:47.5% L1:45.7% BI: 6.8%
x264 [info]: 8x8 transform intra:74.0% inter:70.5%
x264 [info]: coded y,uvDC,uvAC intra: 80.5% 84.7% 71.2% inter: 29.9% 34.8% 12.3%
x264 [info]: i16 v,h,dc,p: 51% 12% 10% 27%
x264 [info]: i8 v,h,dc,ddl,ddr,vr,hd,vl,hu:  9%  7%  6% 11% 15% 14% 14% 12% 13%
x264 [info]: i4 v,h,dc,ddl,ddr,vr,hd,vl,hu:  9%  7%  5% 10% 15% 14% 14% 12% 14%
x264 [info]: i8c dc,h,v,p: 53% 17% 16% 14%
x264 [info]: Weighted P-Frames: Y:2.3% UV:1.4%
x264 [info]: ref P L0: 46.1%  6.6% 17.5%  8.1%  6.2%  4.9%  4.6%  2.5%  2.4%  1.1%  0.0%
x264 [info]: ref B L0: 58.7% 17.5%  9.0%  4.9%  3.7%  3.4%  2.4%  0.4%
x264 [info]: ref B L1: 92.9%  7.1%
x264 [info]: SSIM Mean Y:0.9857911 (18.474db)
x264 [info]: PSNR Mean Y:47.443 U:50.612 V:54.129 Avg:48.053 Global:47.480 kb/s:3149.44

Скриншоты

Скриншоты с iPad




Вернуться к началу
 Профиль Отправить личное сообщение  
 
   Похожие торренты   Автор   Торрент   Размер 
В этой теме нет новых непрочитанных сообщений. Обитель зла: Вендетта / Resident Evil: Vendetta [мультфильм, ужасы, фантастика, 2017] BDRip 720p, Dub [Лицензия]

salma3

48 | 5

4.37 ГБ

В этой теме нет новых непрочитанных сообщений. Обитель зла: Вендетта / Resident Evil: Vendetta [мультфильм, ужасы, фантастика, 2017] BDRip, Dub [Лицензия]

salma3

0 | 0

1.46 ГБ

В этой теме нет новых непрочитанных сообщений. Вендетта / Крёстный 2: вендетта / Vendetta [Драма, 1999] WEBRip 1080p, Mvo

salma3

0 | 0

10 ГБ

В этой теме нет новых непрочитанных сообщений. Личная вендетта / Personal Vendetta [боевик, 1995] DVDRip, Avo

salma3

9 | 2

1.45 ГБ

В этой теме нет новых непрочитанных сообщений. Джеймс Бонд 007: Лицензия на убийство / James Bond 007: Licence to Kill [Боевик, триллер, приключения, 1989] BDRip 720p, Dub

salma3

0 | 0

9.07 ГБ

В этой теме нет новых непрочитанных сообщений. Обитель зла: Вендетта / Resident Evil: Vendetta [мультфильм, ужасы, фантастика, 2017] WEB-DL 1080p, Dub [iTunes]

salma3

1035 | 641

4.06 ГБ

В этой теме нет новых непрочитанных сообщений. Z – значит Захария / Z for Zachariah [Фантастика, драма, триллер, 2015] BDRip 720p, Mvo

salma3

134 | 28

4.2 ГБ


СообщениеДобавлено: 09 ноя 2016, 12:13 

Не в сети
Аватара пользователя
Дата регистрации:
04 ноя 2016, 19:07
Возраст: 36
Спасибо: 0 / 0
Сообщения: 104
Откуда: Madagascar
Very advise you to visit a site that has a lot of information on the topic interests you.

_________________
fat burning food


Вернуться к началу
 Профиль Отправить личное сообщение  
 
Начать новую тему Ответить на тему  [ Сообщений: 2 ] 




Для Мосгорсуда, Роскомнадзора и рекламодателей:: mosgorsud-torrent[собачка]yandex.ru
cron