Торрент файл
скачать торрент магнет ссылка Добавлен: 12 янв 2013, 23:55
Размер: 2.55 ГБ
Сидеров: 5
Личеров: 4
Автор

СообщениеДобавлено: 12 янв 2013, 23:55 

Не в сети
Супермодератор
Аватара пользователя
Дата регистрации:
11 апр 2010, 18:10
Спасибо: 5995 / 7
Сообщения: 56685
id="p-25224744-1">Охотники за головами / Hodejegerne



Год выпуска: 2011
Страна: Германия, Норвегия
Жанр: триллер, криминал, боевик
Продолжительность: 01:40:06
Перевод: профессиональный (полное дублирование)
Оригинальная аудиодорожка: норвежский
Режиссер: Мортен Тильдум / Morten Tyldum
В ролях: Аксель Хенни (Roger Brown), Николай Костер-Вальдау (Clas Greve), Синневе Макоди Лунд (Diana Brown), Юлье Ольгорд (Lotte), Карре Хаген Сиднесс (Jeremias Lander), Рейдар Серенсен (Brede Sperre), Нильс Йорген Каалстад (Stig), Йоахим Рафаелсен (Brugd), Gunnar Skramstad Johnsen (Monsen 1), Lars Skramstad Johnsen (Monsen 2), Signe Tynning (Morning Show Hostess), Бор Ове (Sindre Aa)
Описание: Роджер Браун — блестящий «охотник за головами», незаменимый специалист по подбору топ-менеджеров для крупнейших фирм. Он может найти нужного человека на любую должность и его рекомендация — залог получения работы.
Чтобы удержать красавицу жену, открывшую на деньги мужа картинную галерею в модном районе, Роджер давно уже живет не по средствам, и, пользуясь своим служебным положением, крадет дорогие картины у претендентов на руководящие должности.

Качество: BDRip
Исходник: http://rutracker.org/forum/viewtopic.php?t=3947543
Формат: m4v
Видео кодек: H.264
Аудио кодек: AAC
Видео: 1200x500, 3267 Kbps, 23,976 fps
Аудио Rus: 48 kHz, AAC, 2ch, 192 kbps
Аудио Nor: 48 kHz, AAC, 2ch, 187 kbps
MediaInfo
Код:
Код:
Полное имя : E:\iPad\Hodejegerne, 2011.m4v
Формат : MPEG-4
Идентификатор кодека : M4V
Размер файла : 2,55 Гбайт
Продолжительность : 1 ч. 40 м.
Общий поток : 3649 Кбит/сек
Название фильма : Охотники за головами (2011)
Исполнитель : Мортен Тильдум
Жанр : Thriller
Дата записи : UTC 2011-08-04 07:00:00
Дата кодирования : UTC 2012-02-26 16:15:04
Дата пометки : UTC 2012-02-27 16:21:52
Обложка : Yes
desc : Роджер Браун — блестящий «охотник за головами», незаменимый специалист по подбору топ-менеджеров для крупнейших фирм. Он может найти нужного человека на любую должность и его рекомендация — залог получения работы.
ldes : Роджер Браун — блестящий «охотник за головами», незаменимый специалист по подбору топ-менеджеров для крупнейших фирм. Он может найти нужного человека на любую должность и его рекомендация — залог получения работы.
hdvd : 1
stik : 0
cnID : 526812
xid : iPad:vendor_id:2011-526812
iTunEXTC : mpaa|R|400|
iTunMOVI : / / / / cast / / / name / Аксель Хенни / / / name / Николай Костер-Вальдау / / / name / Синневе Макоди Лунд / / / name / Юлье Ольгорд / / / name / Карре Хаген Сиднесс / / / name / Рейдар Серенсен / / / name / Нильс Йорген Каалстад / / / name / Йоахим Рафаелсен / / / name / Гуннар Скрамстад Йонсен / / / name / Ларс Скрамстад Йонсен. / / / directors / / / name / Мортен Тильдум / / / producers / / / name / Марианн Грэй / / / name / Асле Ватн / / / name / Анни Форби Фернандез / / / screenwriters / / / name / Ларс Гудместад / / / name / Ульф Рюберг / / / name / Ю Несбё / / / /
Видео
Идентификатор : 1
Формат : AVC
Формат/Информация : Advanced Video Codec
Профиль формата : [email protected]
Параметр CABAC формата : Да
Параметр ReFrames формата : 12 кадры
Идентификатор кодека : avc1
Идентификатор кодека/Информация : Advanced Video Coding
Продолжительность : 1 ч. 40 м.
Вид битрейта : Переменный
Битрейт : 3267 Кбит/сек
Максимальный битрейт : 23,6 Мбит/сек
Ширина : 1200 пикс.
Высота : 500 пикс.
Соотношение сторон : 2,40:1
Режим частоты кадров : Постоянный
Частота кадров : 24,000 кадр/сек
Цветовое пространство : YUV
Подвыборка цветности : 4:2:0
Битовая глубина : 8 бит
Тип развёртки : Прогрессивная
Бит/(Пиксели*Кадры) : 0.227
Размер потока : 2,28 Гбайт (90%)
Заголовок : Hodejegerne
Библиотека кодирования : x264 core 120 r2164 da19765
Настройки программы : cabac=1 / ref=12 / deblock=1:-3:-2 / analyse=0x3:0x113 / me=umh / subme=10 / psy=1 / psy_rd=1.00:0.05 / mixed_ref=1 / me_range=32 / chroma_me=1 / trellis=2 / 8x8dct=1 / cqm=0 / deadzone=21,11 / fast_pskip=0 / chroma_qp_offset=-3 / threads=6 / sliced_threads=0 / nr=0 / decimate=0 / interlaced=0 / bluray_compat=0 / constrained_intra=0 / bframes=9 / b_pyramid=2 / b_adapt=2 / b_bias=0 / direct=3 / weightb=1 / open_gop=0 / weightp=2 / keyint=250 / keyint_min=24 / scenecut=40 / intra_refresh=0 / rc_lookahead=60 / rc=2pass / mbtree=1 / bitrate=3267 / ratetol=1.0 / qcomp=0.65 / qpmin=0 / qpmax=69 / qpstep=4 / cplxblur=20.0 / qblur=0.5 / vbv_maxrate=25000 / vbv_bufsize=31250 / nal_hrd=none / ip_ratio=1.35 / aq=2:0.90 / zones=140320,144143,q=30
Язык : Norwegian
Дата кодирования : UTC 2012-02-26 16:15:04
Дата пометки : UTC 2012-02-26 16:18:05
Коэффициенты матрицы : BT.709-5, BT.1361, IEC 61966-2-4 709, SMPTE RP177
Аудио #1
Идентификатор : 2
Формат : AAC
Формат/Информация : Advanced Audio Codec
Профиль формата : LC
Идентификатор кодека : 40
Продолжительность : 1 ч. 40 м.
Вид битрейта : Переменный
Битрейт : 192 Кбит/сек
Максимальный битрейт : 241 Кбит/сек
Канал(ы) : 2 канала(ов)
Расположение каналов : Front: L R
Частота : 48,0 КГц
Метод сжатия : С потерями
Размер потока : 135 Мбайт (5%)
Заголовок : Russian
Язык : Russian
Дата кодирования : UTC 2012-02-26 16:17:42
Дата пометки : UTC 2012-02-26 16:18:05
Аудио #2
Идентификатор : 3
Формат : AAC
Формат/Информация : Advanced Audio Codec
Профиль формата : LC
Идентификатор кодека : 40
Продолжительность : 1 ч. 40 м.
Вид битрейта : Переменный
Битрейт : 187 Кбит/сек
Максимальный битрейт : 244 Кбит/сек
Канал(ы) : 2 канала(ов)
Расположение каналов : Front: L R
Частота : 48,0 КГц
Метод сжатия : С потерями
Размер потока : 134 Мбайт (5%)
Заголовок : Original
Язык : Norwegian
Дата кодирования : UTC 2012-02-26 16:17:54
Дата пометки : UTC 2012-02-26 16:18:05
Текст #1
Идентификатор : 4
Формат : Timed text
Режим смешивания : sbtl
Идентификатор кодека : tx3g
Продолжительность : 1 ч. 37 м.
Вид битрейта : Переменный
Битрейт : 74 бит/сек
Размер потока : 53,0 Кбайт (0%)
Заголовок : digital
Язык : Russian
Дата кодирования : UTC 2012-02-26 16:18:04
Дата пометки : UTC 2012-02-26 16:18:05
Текст #2
Идентификатор : 5
Формат : Timed text
Режим смешивания : sbtl
Идентификатор кодека : tx3g
Продолжительность : 1 ч. 37 м.
Вид битрейта : Переменный
Битрейт : 38 бит/сек
Размер потока : 27,3 Кбайт (0%)
Язык : English
Дата кодирования : UTC 2012-02-26 16:18:05
Дата пометки : UTC 2012-02-26 16:18:05
Текст #3
Идентификатор : 6
Формат : Apple text
Идентификатор кодека : text
Продолжительность : 1 ч. 40 м.
Вид битрейта : Переменный
Битрейт : 1 бит/сек
Размер потока : 391 байт (0%)
Дата кодирования : UTC 2012-02-27 16:21:31
Дата пометки : UTC 2012-02-27 16:21:31

x264 log
Код:
Код:
x264 [info]: frame I:1176  Avg QP:17.40  size: 82204
x264 [info]: frame P:27656 Avg QP:19.88  size: 33290
x264 [info]: frame B:115312 Avg QP:21.63  size: 12447
x264 [info]: consecutive B-frames:  2.0%  1.3%  4.0% 10.4% 14.7% 49.3%  8.8%  1.9%  3.8%  3.8%
x264 [info]: mb I  I16..4:  9.4% 75.5% 15.1%
x264 [info]: mb P  I16..4:  1.0% 10.3%  1.4%  P16..4: 36.9% 26.7% 16.1%  0.0%  0.0%    skip: 7.6%
x264 [info]: mb B  I16..4:  0.0%  1.2%  0.2%  B16..8: 43.9% 13.2%  3.8%  direct: 5.2%  skip:32.3%  L0:47.3% L1:44.7% BI: 8.0%
x264 [info]: 8x8 transform intra:80.8% inter:62.7%
x264 [info]: direct mvs  spatial:99.0% temporal:1.0%
x264 [info]: coded y,uvDC,uvAC intra: 89.2% 82.4% 61.2% inter: 31.4% 20.4% 8.7%
x264 [info]: i16 v,h,dc,p: 43% 16%  8% 34%
x264 [info]: i8 v,h,dc,ddl,ddr,vr,hd,vl,hu: 12%  8%  7% 10% 14% 13% 13% 11% 12%
x264 [info]: i4 v,h,dc,ddl,ddr,vr,hd,vl,hu: 30%  6%  4%  8% 12% 10% 11%  9% 10%
x264 [info]: i8c dc,h,v,p: 42% 23% 20% 16%
x264 [info]: Weighted P-Frames: Y:2.6% UV:1.0%
x264 [info]: ref P L0: 43.4%  7.4% 17.4%  8.5%  6.3%  4.9%  3.9%  2.4%  1.9%  1.6%  1.3%  1.1%  0.1%  0.0%
x264 [info]: ref B L0: 60.0% 16.3%  8.4%  4.6%  3.3%  2.5%  2.0%  1.2%  1.0%  0.5%  0.2%
x264 [info]: ref B L1: 89.7% 10.3%
x264 [info]: kb/s:3266.89

Скриншоты



Вернуться к началу
 Профиль Отправить личное сообщение  
 
   Похожие торренты   Автор   Торрент   Размер 
В этой теме нет новых непрочитанных сообщений. Охотники за головами / Hodejegerne [боевик, триллер, криминал, 2011] BDRip 1080p, Dub

salma3

53 | 16

4.37 ГБ

В этой теме нет новых непрочитанных сообщений. Охотники за головами / Hodejegerne [триллер, драма, криминал, 2011] HDRip-AVC, Dub

salma3

24 | 2

745.05 МБ

В этой теме нет новых непрочитанных сообщений. Охотники за головами / Bounty Hunters (Боевик, мелодрама, комедия, 2016) BDRip от ExKinoRay | L

marya111

57 | 4

1.45 ГБ

В этой теме нет новых непрочитанных сообщений. Пассажиры 3D / Passengers 3D (Мортен Тильдум) [фантастика, драма, мелодрама, приключения, 2016] Blu-Ray CEE 1080p, Dub [3D-Video] [Лицензия]

salma3

95 | 156

38.84 ГБ

В этой теме нет новых непрочитанных сообщений. Охотники за головами / Bounty Hunters [боевик, мелодрама, комедия, 2016] WEB-DL 720p, dvo

marya111

0 | 0

2.8 ГБ

В этой теме нет новых непрочитанных сообщений. Охотники за головами / Bounty Huntersl [S01] [Боевик, комедия, приключения, 2017] HDTVRip-AVC, Dvo [Ozz]

salma3

61 | 38

3.39 ГБ

В этой теме нет новых непрочитанных сообщений. Охотники за головами / Bounty Hunters [боевик, мелодрама, комедия, 2016] BDRemux 1080p, Mvo

salma3

87 | 40

18.52 ГБ


Начать новую тему Ответить на тему  [ 1 сообщение ] 




Для Мосгорсуда, Роскомнадзора и рекламодателей:: mosgorsud-torrent[собачка]yandex.ru
cron