Торрент файл
скачать торрент магнет ссылка Добавлен: 12 янв 2013, 23:55
Размер: 1.91 ГБ
Сидеров: 1
Личеров: 3
Автор

СообщениеДобавлено: 12 янв 2013, 23:55 

Не в сети
Супермодератор
Аватара пользователя
Дата регистрации:
11 апр 2010, 18:10
Спасибо: 5995 / 7
Сообщения: 56685
id="p-25224744-1">Фрилансеры / Freelancers
Год выпуска: 2012
Страна: США
Жанр: Боевик, драма, криминал, детектив
Продолжительность: 01:36:32
Перевод : Любительский одноголосый
Русские субтитры: нет
Режиссёр: Джесси Терреро/Jessy Terrero
В ролях: Фифти Сент, Форест Уитакер, Роберт Де Ниро, Дана Дилэйни, Бо Гарретт, Майкл МакГрэйди, Мэтт Джералд, Райдэн Грир, Джефф Чейз, Малкольм Гудвин
Описание: Фильм расскажет о сыне убитого нью-йоркского копа, который вместе с двумя лучшими друзьями поступает в полицейскую академию, а после ее окончания парня берет под крыло бывший напарник его отца капитан Вик Сарконе, командующий оперативным отрядом по борьбе с уличной преступностью.
Доп. информация:
Качество: BDRip
Формат: *.mp4
Видео кодек: H.264
аудио кодек: ААС
Разрешение: 1024x432
Другие параметры видео: 2500 kbit/s; 23.976 fps
Аудио Rus: 160 kbit/s; 2ch; 48KHz VO
Аудио Eng: 160 kbit/s; 2ch; 48KHz Original
Вшитая обложка: есть
Доп. теги (режиссёр, актёры и т.д.): прописаны
MediaInfo
General
Complete name : /Users/imac/HandBrake/Frilansery.2012.x264.BDRip.1024x.m4v
Format : MPEG-4
Format profile : Base Media / Version 2
Codec ID : mp42
File size : 1.91 GiB
Duration : 1h 36mn
Overall bit rate mode : Variable
Overall bit rate : 2 832 Kbps
Movie name : Фрилансеры
Performer : Джесси Терреро
Genre : Crime
Recorded date : UTC 2012-08-10 15:00:00
Encoded date : UTC 2012-08-26 14:27:11
Tagged date : UTC 2012-08-26 16:44:28
Writing application : HandBrake 0.9.8 2012071800
Cover : Yes
iTunEXTC : mpaa|R|400|
desc : Фильм расскажет о сыне убитого нью-йоркского копа, который вместе с двумя лучшими друзьями поступает в полицейскую академию.
ldes : Фильм расскажет о сыне убитого нью-йоркского копа, который вместе с двумя лучшими друзьями поступает в полицейскую академию, а после ее окончания парня берет под крыло бывший напарник его отца капитан Вик Сарконе, командующий оперативным отрядом по борьбе с уличной преступностью.
stik : 0
iTunMOVI : <?xml version="1.0" encoding="UTF-8"?> / <!DOCTYPE plist PUBLIC "-/Apple/DTD PLIST 1.0/EN" "http://www.apple.com/DTDs/PropertyList-1.0.dtd"> / <plist version="1.0"> / <dict> / <key>cast</key> / <array> / <dict> / <key>name</key> / <string> Фифти Сент</string> / </dict> / <dict> / <key>name</key> / <string>Форест Уитакер</string> / </dict> / <dict> / <key>name</key> / <string>Роберт Де Ниро.</string> / </dict> / </array> / <key>directors</key> / <array> / <dict> / <key>name</key> / <string>Джесси Терреро</string> / </dict> / </array> / <key>producers</key> / <array> / <dict> / <key>name</key> / <string>Фифти Сент</string> / </dict> / <dict> / <key>name</key> / <string>Рэндолл Эмметт</string> / </dict> / <dict> / <key>name</key> / <string>Джордж Ферлэ</string> / </dict> / </array> / <key>screenwriters</key> / <array> / <dict> / <key>name</key> / <string>Л. Филипп Коссес</string> / </dict> / </array> / </dict> / </plist>
tven : 577638
Video
ID : 1
Format : AVC
Format/Info : Advanced Video Codec
Format profile : [email protected]
Format settings, CABAC : Yes
Format settings, ReFrames : 9 frames
Codec ID : avc1
Codec ID/Info : Advanced Video Coding
Duration : 1h 36mn
Bit rate mode : Variable
Bit rate : 2 500 Kbps
Width : 1 024 pixels
Height : 432 pixels
Display aspect ratio : 2.40:1
Original display aspect ratio : 2.40:1
Frame rate mode : Variable
Frame rate : 23.976 fps
Minimum frame rate : 23.810 fps
Maximum frame rate : 24.390 fps
Color space : YUV
Chroma subsampling : 4:2:0
Bit depth : 8 bits
Scan type : Progressive
Bits/(Pixel*Frame) : 0.236
Stream size : 1.68 GiB (88%)
Writing library : x264 core 120
Encoding settings : cabac=1 / ref=9 / deblock=1:0:0 / analyse=0x3:0x113 / me=umh / subme=9 / psy=1 / psy_rd=1.00:0.00 / mixed_ref=1 / me_range=32 / chroma_me=1 / trellis=1 / 8x8dct=1 / cqm=0 / deadzone=21,11 / fast_pskip=1 / chroma_qp_offset=-2 / threads=12 / sliced_threads=0 / nr=0 / decimate=1 / interlaced=0 / bluray_compat=0 / constrained_intra=0 / bframes=6 / b_pyramid=2 / b_adapt=2 / b_bias=0 / direct=1 / weightb=1 / open_gop=0 / weightp=2 / keyint=240 / keyint_min=24 / scenecut=40 / intra_refresh=0 / rc_lookahead=40 / rc=2pass / mbtree=1 / bitrate=2500 / ratetol=1.0 / qcomp=0.60 / qpmin=3 / qpmax=69 / qpstep=4 / cplxblur=20.0 / qblur=0.5 / ip_ratio=1.40 / aq=1:1.00
Encoded date : UTC 2012-08-26 14:27:11
Tagged date : UTC 2012-08-26 15:46:40
Color primaries : BT.709-5, BT.1361, IEC 61966-2-4, SMPTE RP177
Transfer characteristics : BT.709-5, BT.1361
Matrix coefficients : BT.709-5, BT.1361, IEC 61966-2-4 709, SMPTE RP177
Audio #1
ID : 2
Format : AAC
Format/Info : Advanced Audio Codec
Format profile : LC
Codec ID : 40
Duration : 1h 36mn
Bit rate mode : Variable
Bit rate : 163 Kbps
Maximum bit rate : 275 Kbps
Channel(s) : 2 channels
Channel positions : Front: L R
Sampling rate : 48.0 KHz
Compression mode : Lossy
Stream size : 113 MiB (6%)
Language : Russian
Encoded date : UTC 2012-08-26 14:27:11
Tagged date : UTC 2012-08-26 15:46:39
Audio #2
ID : 3
Format : AAC
Format/Info : Advanced Audio Codec
Format profile : LC
Codec ID : 40
Duration : 1h 36mn
Bit rate mode : Variable
Bit rate : 164 Kbps
Maximum bit rate : 274 Kbps
Channel(s) : 2 channels
Channel positions : Front: L R
Sampling rate : 48.0 KHz
Compression mode : Lossy
Stream size : 113 MiB (6%)
Language : English
Encoded date : UTC 2012-08-26 14:27:11
Tagged date : UTC 2012-08-26 15:46:39
Text
ID : 4
Format : Apple text
Codec ID : text
Duration : 1h 36mn
Bit rate mode : Constant
Bit rate : 1 bps
Stream size : 384 Bytes (0%)
Encoded date : UTC 2012-08-26 14:27:11
Tagged date : UTC 2012-08-26 15:46:40
x264 log
x264 [info]: x264 [info]: frame I:1435 Avg QP:16.05 size:231608 PSNR Mean Y:47.68 U:52.96 V:52.37 Avg:48.77 Global:48.02
x264 [info]: frame P:31472 Avg QP:18.78 size: 78113 PSNR Mean Y:45.25 U:51.63 V:51.08 Avg:46.43 Global:45.00
x264 [info]: frame B:105975 Avg QP:21.21 size: 42970 PSNR Mean Y:43.49 U:51.01 V:50.50 Avg:44.83 Global:44.00
x264 [info]: consecutive B-frames: 3.0% 3.3% 8.8% 19.1% 14.7% 45.8% 5.3%
x264 [info]: mb I I16..4: 40.5% 0.0% 59.5%
x264 [info]: mb P I16..4: 40.0% 0.0% 0.0% P16..4: 45.4% 0.0% 0.0% 0.0% 0.0% skip:14.6%
x264 [info]: mb B I16..4: 15.8% 0.0% 0.0% B16..8: 31.8% 0.0% 0.0% direct:15.7% skip:36.7% L0:30.6% L1:40.1% BI:29.4%
x264 [info]: final ratefactor: 18.58
x264 [info]: coded y,uvDC,uvAC intra: 84.5% 58.6% 25.0% inter: 27.9% 19.3% 0.7%
x264 [info]: i16 v,h,dc,p: 16% 11% 56% 17%
x264 [info]: i4 v,h,dc,ddl,ddr,vr,hd,vl,hu: 16% 16% 20% 8% 8% 8% 8% 8% 9%
x264 [info]: i8c dc,h,v,p: 56% 20% 21% 3%
x264 [info]: Weighted P-Frames: Y:2.6% UV:1.4%
x264 [info]: SSIM Mean Y:0.9731919 (15.717db)
x264 [info]: PSNR Mean Y:43.936 U:51.171 V:50.649 Avg:45.234 Global:44.232 kb/s:10143.38
iTunes meta tag
Encoding Tool: HandBrake 0.9.8 2012071800
iPad:vendor_id:2012-577638
Media Kind —Movie
contentID-577638
Screenwriters: Л. Филипп Коссес
Producers: Фифти Сент, Рэндолл Эмметт, Джордж Ферлэ
Director: Джесси Терреро
Cast: Фифти Сент, Форест Уитакер, Роберт Де Ниро.
Rating: 5
Long Description: Фильм расскажет о сыне убитого нью-йоркского копа, который вместе с двумя лучшими друзьями поступает в полицейскую академию, а после ее окончания парня берет под крыло бывший напарник его отца капитан Вик Сарконе, командующий оперативным отрядом по борьбе с уличной преступностью.
Description: Фильм расскажет о сыне убитого нью-йоркского копа, который вместе с двумя лучшими друзьями поступает в полицейскую академию.
Release Date: 2012-08-10T15:00:00Z
Genre: Crime
Artist: Джесси Терреро
Name: Фрилансеры
Скриншоты



Вернуться к началу
 Профиль Отправить личное сообщение  
 
   Похожие торренты   Автор   Торрент   Размер 
В этой теме нет новых непрочитанных сообщений. Восставший / Risen [боевик, драма, детектив, приключения, 2016] BDRip 720p, Dub [iPad]

salma3

29 | 9

1.91 ГБ

В этой теме нет новых непрочитанных сообщений. Расплата / The Accountant (Боевик, триллер, драма, криминал, 2016) BDRip | iPad | iTunes

marya111

294 | 40

2.2 ГБ

В этой теме нет новых непрочитанных сообщений. Любой ценой / Hell or High Water [боевик, драма, криминал, вестерн, 2016] BDRip 720p, Dub [iPad] [Лицензия]

salma3

65 | 3

2.31 ГБ

В этой теме нет новых непрочитанных сообщений. Джесси Стоун: Гибель невинных / Jesse Stone: Innocents Lost [драма, криминал, детектив, 2011] WEB-DL 720p, Avo+Sub

salma3

121 | 15

3.09 ГБ

В этой теме нет новых непрочитанных сообщений. Забирая жизни / Taking Lives [триллер, криминал, детектив, 2004] BDRip 720p, Dub [Режиссерская версия] [iPad]

salma3

0 | 0

1.64 ГБ

В этой теме нет новых непрочитанных сообщений. Коллекционер 2 / The Collection [ужасы, боевик, триллер, 2012] BDRip 720p, Dub [iPad]

salma3

0 | 0

1.73 ГБ

В этой теме нет новых непрочитанных сообщений. Джесси Стоун: Тайны Парадайза / Jesse Stone: Lost in Paradise (Роберт Хармон / Robert Harmon) [2015г., Канада, драма, криминал, детектив, WEB-DL 720p] MVO

Alfredovich

4014 | 552

2.85 ГБ


Начать новую тему Ответить на тему  [ 1 сообщение ] 




Для Мосгорсуда, Роскомнадзора и рекламодателей:: mosgorsud-torrent[собачка]yandex.ru
cron