Торрент файл
скачать торрент магнет ссылка Добавлен: 12 янв 2013, 23:55
Размер: 5.03 ГБ
Сидеров: 30
Личеров: 10
Автор

СообщениеДобавлено: 12 янв 2013, 23:55 

Не в сети
Супермодератор
Аватара пользователя
Дата регистрации:
11 апр 2010, 18:10
Спасибо: 5995 / 7
Сообщения: 56685
id="p-25224744-1">Полиглот. Выучим английский за 16 часов!

Год выпуска: 2012 | Страна: Россия | Жанр: Интенсивный курс изучения английского языка | Продолжительность: ~00:45:00 | Перевод : Не требуется | Cубтитры: нет
Режиссёр: Сергей Дерябин | Оператор-постановщик: Александр Шмидт | Шеф-редактор: Ирина Лесова | Редакторы: Мария Красюк, Зоя Апостольская
Преподаватель:
Дмитрий Петров
Участники:
актеры Владимир Епифанцев, Анна Литкенс, Дарья Екамасова, Александра Ребенок, Анастасия Введенская; ювелир-дизайнер Михаил Милютин; искусствовед Алиса Горлова; писатель, сценарист, телеведущий Олег Шишкин.
Описание:Интеллектуальное реалити-шоу, интенсивный курс изучения английского языка.
Преподаватель - Дмитрий Петров - полиглот (в его активе более 30 языков), психолингвист, синхронный переводчик, автор методики интенсивного обучения иностранным языкам, автор книги "Магия Слова".
В группе 8 учеников. Шестеро из них - медийные лица (актёры, режиссеры, телеведущие). Все ученики или не знают изучаемого языка, или, в лучшем случае, у них остались смутные воспоминания от школьной программы. Уже на первом уроке они начинают общение на языке. С ошибками, с долгими паузами, с напряжением, но прогресс заметен сразу.
На каждом уроке закрепляется пройденное и вводится новый грамматический и лексический материал. К финишу ученики овладевают основными грамматическими схемами и свободно используют их в своей речи.
Метод Дмитрия Петрова - не приступать к языку, а проникать в него, почувствовать себя комфортно в новой языковой среде.
Качество: DVBRip | Формат: *.mp4 | Видео кодек: H.264 | аудио кодек: ААС | Разрешение: 480х368 | Другие параметры видео: 896 Кбит/сек; 25,000 кадров/сек
Аудио : 128 Кбит/сек; 2 канала; 48,0 КГц
Вшитая обложка: есть | Доп. теги (режиссёр, актёры и т.д.): прописаны | Главы: нет
Все раздачи "Полиглот. Выучим английский за 16 часов!" в разделе Видео (iPhone, iPod Touch)
MediaInfo
Код:
Код:
Общее
Полное имя                       : D:\Раздачи\Видео\Полиглот. Выучим английский за 16 часов!\Poliglot\Poliglot.E01.DVBRip.Stroller.mp4
Формат                           : MPEG-4
Профиль формата                  : Base Media / Version 2
Идентификатор кодека             : mp42
Размер файла                     : 322 Мбайт
Продолжительность                : 43 м.
Режим общего битрейта            : Переменный
Общий поток                      : 1027 Кбит/сек
Название фильма                  : Выпуск 1
Альбом                           : Полиглот. Выучим английский за 16 часов!
Трек/Положение                   : 1
Трек/Всего                       : 16
Исполнитель                      : Полиглот. Выучим английский за 16 часов!
Жанр                             : Reality TV
Дата записи                      : UTC 2012-01-16 07:00:00
Дата кодирования                 : UTC 2012-03-06 19:58:54
Дата пометки                     : UTC 2012-03-10 10:14:58
Программа кодирования            : HandBrake 0.9.6 2012022800
Правообладатель                  : Stroller
Обложка                          : Yes
Примечание                       : © by RG Apple from rutracker.org
iTunMOVI                         : <?xml version="1.0" encoding="UTF-8"?> / <!DOCTYPE plist PUBLIC "-/Apple/DTD PLIST 1.0/EN" "http:/www.apple.com/DTDs/PropertyList-1.0.dtd"> / <plist version="1.0"> / <dict> /  <key>cast</key> /  <array> /   <dict> /    <key>name</key> /    <string>Дмитрий Петров</string> /   </dict> /   <dict> /    <key>name</key> /    <string>Владимир Епифанцев</string> /   </dict> /   <dict> /    <key>name</key> /    <string>Анна Литкенс</string> /   </dict> /   <dict> /    <key>name</key> /    <string>Дарья Екамасова</string> /   </dict> /   <dict> /    <key>name</key> /    <string>Александра Ребенок</string> /   </dict> /   <dict> /    <key>name</key> /    <string>Анастасия Веденская</string> /   </dict> /   <dict> /    <key>name</key> /    <string>Михаил Милютин</string> /   </dict> /   <dict> /    <key>name</key> /    <string>Алиса Горлова</string> /   </dict> /   <dict> /    <key>name</key> /    <string>Олег Шишкин</string> /   </dict> /  </array> /  <key>directors</key> /  <array> /   <dict> /    <key>name</key> /    <string>Сергей Дерябин</string> /   </dict> /  </array> /  <key>producers</key> /  <array> /   <dict> /    <key>name</key> /    <string>Ирина Лесова</string> /   </dict> /  </array> /  <key>screenwriters</key> /  <array> /   <dict> /    <key>name</key> /    <string>Мария Красюк</string> /   </dict> /   <dict> /    <key>name</key> /    <string>Зоя Апостольская</string> /   </dict> /  </array> / </dict> / </plist>
tvsh                             : Полиглот. Выучим английский за 16 часов!
tvnn                             : Россия К
tven                             : Выпуск 1
tvsn                             : 1
tves                             : 1
desc                             : Интеллектуальное реалити-шоу, интенсивный курс изучения английского языка.
ldes                             : Интеллектуальное реалити-шоу, интенсивный курс изучения английского языка. /  Преподаватель - Дмитрий Петров - полиглот (в его активе более 30 языков), психолингвист, синхронный переводчик, автор методики интенсивного обучения иностранным языкам, автор книги "Магия Слова". /  / В группе 8 учеников. Шестеро из них - медийные лица (актёры, режиссеры, телеведущие). Все ученики или не знают изучаемого языка, или, в лучшем случае, у них остались смутные воспоминания от школьной программы. Уже на первом уроке они начинают общение на языке. С ошибками, с долгими паузами, с напряжением, но прогресс заметен сразу.
stik                             : 10
Видео
Идентификатор                    : 1
Формат                           : AVC
Формат/Информация                : Advanced Video Codec
Профиль формата                  : [email protected]
Параметр CABAC формата           : Нет
Параметр ReFrames формата        : 4 кадра
Идентификатор кодека             : avc1
Идентификатор кодека/Информация  : Advanced Video Coding
Продолжительность                : 43 м.
Duration_FirstFrame              : 40 мс.
Вид битрейта                     : Переменный
Битрейт                          : 896 Кбит/сек
Ширина                           : 480 пикселей
Высота                           : 368 пикселей
Соотношение сторон               : 4:3
Режим частоты кадров             : Постоянный
Частота кадров                   : 25,000 кадров/сек
Цветовое пространство            : YUV
Субдискретизация насыщенности    : 4:2:0
Битовая глубина                  : 8 бит
Тип развёртки                    : Прогрессивная
Бит/(Пиксели*Кадры)              : 0.203
Размер потока                    : 281 Мбайт (87%)
Библиотека кодирования           : x264 core 120
Настройки программы              : cabac=0 / ref=4 / deblock=1:0:0 / analyse=0x1:0x111 / me=umh / subme=6 / psy=1 / psy_rd=1.00:0.00 / mixed_ref=1 / me_range=16 / chroma_me=1 / trellis=0 / 8x8dct=0 / cqm=0 / deadzone=21,11 / fast_pskip=1 / chroma_qp_offset=-2 / threads=6 / sliced_threads=0 / nr=0 / decimate=1 / interlaced=0 / bluray_compat=0 / constrained_intra=0 / bframes=0 / weightp=0 / keyint=250 / keyint_min=25 / scenecut=40 / intra_refresh=0 / rc_lookahead=40 / rc=2pass / mbtree=1 / bitrate=896 / ratetol=1.0 / qcomp=0.60 / qpmin=3 / qpmax=69 / qpstep=4 / cplxblur=20.0 / qblur=0.5 / ip_ratio=1.40 / aq=1:1.00
Дата кодирования                 : UTC 2012-03-06 19:58:54
Дата пометки                     : UTC 2012-03-06 20:06:15
Основные цвета                   : BT.601-6 525, BT.1358 525, BT.1700 NTSC, SMPTE 170M
Характеристики трансфера         : BT.709-5, BT.1361
Коэффициенты матрицы             : BT.601-6 525, BT.1358 525, BT.1700 NTSC, SMPTE 170M
Аудио
Идентификатор                    : 2
Формат                           : AAC
Формат/Информация                : Advanced Audio Codec
Профиль формата                  : LC
Идентификатор кодека             : 40
Продолжительность                : 43 м.
Вид битрейта                     : Переменный
Битрейт                          : 128 Кбит/сек
Максимальный битрейт             : 165 Кбит/сек
Каналы                           : 2 канала
Расположение каналов             : Front: L R
Частота                          : 48,0 КГц
Метод сжатия                     : С потерями
Размер потока                    : 40,1 Мбайт (12%)
Дата кодирования                 : UTC 2012-03-06 19:58:54
Дата пометки                     : UTC 2012-03-06 20:06:15

Скриншоты



Вернуться к началу
 Профиль Отправить личное сообщение  
 
   Похожие торренты   Автор   Торрент   Размер 
В этой теме нет новых непрочитанных сообщений. Сергей Ковалёв - Наджиб Мохаммеди + Андеркарт [25.07] (HBO HD) [Бокс, 2015] HDTV 480p [Английский / 60 fps]

Dracon

160 | 37

1.75 ГБ

В этой теме нет новых непрочитанных сообщений. 48 часов / 48 Hrs. [Боевик, триллер, драма, 1982] HDRip-AVC, Mvo

salma3

34 | 4

746.28 МБ

В этой теме нет новых непрочитанных сообщений. 36 часов / 36 Hours [триллер, военный, 1964] BDRip, Avo

salma3

67 | 27

1.45 ГБ

В этой теме нет новых непрочитанных сообщений. 48 часов / 48 Hrs [боевик, криминал, 1982] BDRip 720p, Avo

salma3

41 | 4

3.5 ГБ

В этой теме нет новых непрочитанных сообщений. 9 часов мжм [2017 г., Amateur, Homemade, Russian, CamRip]

Dievas

534 | 230

297.02 МБ

В этой теме нет новых непрочитанных сообщений. 48 часов / 48 Hrs. [Боевик, триллер, драма, 1982] BDRip 720p, Mvo

salma3

1 | 89

5.02 ГБ

В этой теме нет новых непрочитанных сообщений. Другие 48 часов / Another 48 Hrs [Боевик, комедия, 1990] WEB-DLRip 720p, Mvo [НТВ+]

salma3

18 | 2

4.86 ГБ


Начать новую тему Ответить на тему  [ 1 сообщение ] 




Для Мосгорсуда, Роскомнадзора и рекламодателей:: mosgorsud-torrent[собачка]yandex.ru
cron