Торрент файл
скачать торрент магнет ссылка Добавлен: 12 янв 2013, 23:53
Размер: 2.31 ГБ
Сидеров: 3
Личеров: 4
Автор

СообщениеДобавлено: 12 янв 2013, 23:53 

Не в сети
Супермодератор
Аватара пользователя
Дата регистрации:
11 апр 2010, 18:10
Спасибо: 5995 / 7
Сообщения: 56685
id="p-25224744-1">Зомби по имени Шон / Shaun of the Dead



Год выпуска: 2004
Страна: США, Франция, Великобритания
Жанр: ужасы, комедия
Продолжительность: 1 ч. 39 м.
Перевод: Профессиональный (многоголосый, закадровый) (Tycoon-studio)
Режиссер: Эдгар Райт / Edgar Wright
В ролях: Саймон Пегг, Кейт Эшфилд, Ник Фрост, Люси Дэвис, Дилан Моран, Николя Каннингэм, Кейр Миллс, Мэтт Джейнс, Гэвин Фергюсон
Описание: Жизнь Шона похожа на бесконечный, тоскливый сон: нудная работа, бытовые дрязги, «разборки» с подружкой и проблемы с мамой. Единственная отдушина нашего парня — местная пивная, где он после работы «заседает» со своим другом по имени Эд.
Качество: BDRip
Исходник: http://rutracker.org/forum/viewtopic.php?t=3028861
Формат: m4v
Видео кодек: H.264
Аудио кодек: AAC
Видео: 1024x448, 3000 Kbps, 23,976 fps
Аудио Rus: 48 kHz, AAC, 2ch, 160 kbps
Аудио Eng: 48 kHz, AAC, 2ch, 164 kbps
MediaInfo
Код:
Код:
Полное имя : F:\iPad\Shaun of the Dead.m4v
Формат : MPEG-4
Профиль формата : Base Media / Version 2
Идентификатор кодека : mp42
Размер файла : 2,31 Гбайт
Продолжительность : 1 ч. 39 м.
Общий поток : 3336 Кбит/сек
Название фильма : Зомби по имени Шон
Исполнитель : Эдгар Райт
Жанр : Comedy
Дата записи : UTC 2004-12-21 08:00:00
Дата кодирования : UTC 2012-02-16 11:50:24
Дата пометки : UTC 2012-02-18 10:18:25
Программа кодирования : X Lossless Decoder 20100401, QuickTime 7.6.6, Constrained VBR 160 kbps
Обложка : Yes
desc : Жизнь Шона похожа на бесконечный, тоскливый сон: нудная работа, бытовые дрязги, «разборки» с подружкой и проблемы с мамой. Единственная отдушина нашего парня — местная пивная, где он после работы «заседает» со своим другом по имени Эд.
ldes : Жизнь Шона похожа на бесконечный, тоскливый сон: нудная работа, бытовые дрязги, «разборки» с подружкой и проблемы с мамой. Единственная отдушина нашего парня — местная пивная, где он после работы «заседает» со своим другом по имени Эд.
hdvd : 1
stik : 9
rtng : 0
cnID : 279610304
xid : iPad:vendor_id:2004-64021
iTunEXTC : mpaa|R|400|
iTunMOVI : / / / / cast / / / name / Саймон Пегг / / / name / Кейт Эшфилд / / / name / Ник Фрост / / / name / Люси Дэвис / / / name / Дилан Моран / / / name / Николя Каннингэм / / / name / Кейр Миллс / / / name / Мэтт Джейнс / / / name / Гэвин Фергюсон / / / directors / / / name / Эдгар Райт / / / producers / / / name / Нира Парк / / / name / Тим Беван / / / name / Эрик Феллнер / / / screenwriters / / / name / Саймон Пегг / / / name / Эдгар Райт / / / /
Видео
Идентификатор : 1
Формат : AVC
Формат/Информация : Advanced Video Codec
Профиль формата : [email protected]
Параметр CABAC формата : Да
Параметр ReFrames формата : 8 кадры
Идентификатор кодека : avc1
Идентификатор кодека/Информация : Advanced Video Coding
Продолжительность : 1 ч. 38 м.
Вид битрейта : Переменный
Битрейт : 3000 Кбит/сек
Ширина : 1024 пикс.
Высота : 448 пикс.
Соотношение сторон : 2,25:1
Режим частоты кадров : Переменный
Частота кадров : 23,976 кадр/сек
Минимальная частота кадров : 23,810 кадр/сек
Максимальная частота кадров : 24,390 кадр/сек
Цветовое пространство : YUV
Подвыборка цветности : 4:2:0
Битовая глубина : 8 бит
Тип развёртки : Прогрессивная
Бит/(Пиксели*Кадры) : 0.273
Размер потока : 2,07 Гбайт (90%)
Дата кодирования : UTC 2012-02-16 11:50:24
Дата пометки : UTC 2012-02-16 11:52:18
Аудио #1
Идентификатор : 3
Формат : AAC
Формат/Информация : Advanced Audio Codec
Профиль формата : LC
Идентификатор кодека : 40
Продолжительность : 1 ч. 39 м.
Вид битрейта : Переменный
Битрейт : 160 Кбит/сек
Максимальный битрейт : 274 Кбит/сек
Канал(ы) : 2 канала(ов)
Расположение каналов : Front: L R
Частота : 48,0 КГц
Метод сжатия : С потерями
Размер потока : 113 Мбайт (5%)
Язык : Russian
Дата кодирования : UTC 2012-02-16 11:50:24
Дата пометки : UTC 2012-02-16 11:52:24
Аудио #2
Идентификатор : 4
Формат : AAC
Формат/Информация : Advanced Audio Codec
Профиль формата : LC
Идентификатор кодека : 40
Продолжительность : 1 ч. 38 м.
Вид битрейта : Переменный
Битрейт : 164 Кбит/сек
Максимальный битрейт : 279 Кбит/сек
Канал(ы) : 2 канала(ов)
Расположение каналов : Front: L R
Частота : 48,0 КГц
Метод сжатия : С потерями
Размер потока : 116 Мбайт (5%)
Язык : English
Дата кодирования : UTC 2012-02-16 11:50:24
Дата пометки : UTC 2012-02-16 11:52:31
Текст #1
Идентификатор : 2
Формат : Timed text
Режим смешивания : sbtl
Идентификатор кодека : tx3g
Продолжительность : 1 ч. 35 м.
Вид битрейта : Переменный
Битрейт : 124 бит/сек
Размер потока : 86,5 Кбайт (0%)
Язык : Russian
Дата кодирования : UTC 2012-02-16 11:50:24
Дата пометки : UTC 2012-02-16 11:52:18
Текст #2
Идентификатор : 6
Формат : Apple text
Идентификатор кодека : text
Продолжительность : 1 ч. 38 м.
Вид битрейта : Постоянный
Битрейт : 1 бит/сек
Размер потока : 912 байт (0%)
Дата кодирования : UTC 2012-02-18 10:18:25
Дата пометки : UTC 2012-02-18 10:18:25
Меню
00:00:00.000 : Chapter 01
00:03:14.236 : Chapter 02
00:04:42.073 : Chapter 03
00:07:05.758 : Chapter 04
00:08:31.678 : Chapter 05
00:11:54.130 : Chapter 06
00:13:29.726 : Chapter 07
00:15:38.145 : Chapter 08
00:18:06.043 : Chapter 09
00:21:27.703 : Chapter 10
00:25:14.179 : Chapter 11
00:28:22.576 : Chapter 12
00:30:32.456 : Chapter 13
00:32:44.963 : Chapter 14
00:35:03.059 : Chapter 15
00:36:38.780 : Chapter 16
00:39:12.892 : Chapter 17
00:40:14.119 : Chapter 18
00:41:50.258 : Chapter 19
00:45:43.741 : Chapter 20
00:47:20.378 : Chapter 21
00:48:15.184 : Chapter 22
00:51:12.152 : Chapter 23
00:54:39.860 : Chapter 24
00:56:28.427 : Chapter 25
00:57:43.752 : Chapter 26
00:59:48.335 : Chapter 27
01:03:59.586 : Chapter 28
01:07:29.671 : Chapter 29
01:10:22.135 : Chapter 30
01:13:36.537 : Chapter 31
01:16:18.616 : Chapter 32
01:21:02.483 : Chapter 33
01:25:04.016 : Chapter 34
01:29:37.581 : Chapter 35
01:31:15.678 : Chapter 36
01:33:26.850 : Chapter 37
01:38:59.058 : Chapter 38

Скриншоты



Вернуться к началу
 Профиль Отправить личное сообщение  
 
   Похожие торренты   Автор   Торрент   Размер 
В этой теме нет новых непрочитанных сообщений. Зомби по имени Шон / Shaun of the Dead [ужасы, комедия, 2004] BDRip 720p, Mvo

salma3

8 | 3

4.42 ГБ

В этой теме нет новых непрочитанных сообщений. Зомби по имени Шон / Shaun of the Dead [Ужасы, комедия, 2004] BDRemux 1080p, Mvo

salma3

0 | 0

26.57 ГБ

В этой теме нет новых непрочитанных сообщений. Зомби-бабуля / Granny of the Dead [ужасы, комедия, 2017] WEB-DLRip, Mvo

salma3

637 | 99

1.37 ГБ

В этой теме нет новых непрочитанных сообщений. Поворот не туда 2: Тупик / Wrong Turn 2: Dead End [ужасы, 2007] BDRip 720p, Dub [iPad]

salma3

0 | 0

2.57 ГБ

В этой теме нет новых непрочитанных сообщений. Рождество для Писателя / The Mistletoe Inn (Алекс Райт / Alex Wright) [2017г., драма, HDTVRip] MVO

Alfredovich

34 | 3

1.37 ГБ

В этой теме нет новых непрочитанных сообщений. Стриптиз от зомби / Зомби-стриптизерши / Zombie Strippers! [ужасы, комедия, 2008] BDRemux, Mvo

salma3

14 | 6

21.68 ГБ

В этой теме нет новых непрочитанных сообщений. Смотритель маяка / Edgar Allan Poe's Lighthouse Keeper [ужасы, 2016] BDRip, Avo

salma3

1214 | 250

1.22 ГБ


Начать новую тему Ответить на тему  [ 1 сообщение ] 




Для Мосгорсуда, Роскомнадзора и рекламодателей:: mosgorsud-torrent[собачка]yandex.ru
cron