Торрент файл
скачать торрент магнет ссылка Добавлен: 12 янв 2013, 23:52
Размер: 1.49 ГБ
Сидеров: 1
Личеров: 3
Автор

СообщениеДобавлено: 12 янв 2013, 23:52 

Не в сети
Супермодератор
Аватара пользователя
Дата регистрации:
11 апр 2010, 18:10
Спасибо: 5995 / 7
Сообщения: 56685
id="p-25224744-1">Coлoвeй-Paзбoйник
«Здесь граблю только я!»
Год выпуска: 2012
Страна: Россия
Студия: Студия "Ортодокс"
Жанр: Боевик, комедия, криминал
Продолжительность: 01:31:19
Перевод: Не требуется
Оригинальная аудиодорожка: есть
Режиссёр: Eгop Бapaнoв
Сценарий: Ивaн Oхлoбыcтин
Продюссер: Любовь Калинская, Виктор Алисов, Геннадий Меркулов
В ролях: Иван Охлобыстин, Евгений Стычкин, Оксана Фандера, Игорь Жижикин, Сергей Бадюк, Александр Стриженов, Павел Прилучный, Мария Голубкина, Александр Сухинин, Михаил Горевой, Вадим Демчог, Петр Винс, Даниил Меркулов, Любовь Макеева, Дмитрий Шевченко
Описание:
История о дерзком романтике Соловьёве Севастьяне Григорьевиче, cтупившем по зову крови на лихую стезю русского разбоя. И пока спецслужбы во главе с секретным агентом Н7 пытаются ликвидировать банду Соловья-Разбойника, он, со свойственным ему драйвом и озорством, восстанавливает в родном краю справедливость. Но рано или поздно любой «сказке» приходит конец…
Доп. информация:

Качество исходника: BDRemux - Соловей-Разбойник / 2012 / РУ / Blu-Ray Remux (1080p)
Качество: BDRip
Разрешение: 1024х432
Формат: MP4
Видео: H.264, 2,40:1 , 2200kbit/s; 23.976fps
Аудио: Russian/Original, AAC, 125kbit/s; 2ch; 48KHz
iTunes Meta Tags
Код:
XID: Apple:vendor_id:2012-468195
contentID: 468195
Screenwriters: Иван Охлобыстин
Producers: Любовь Калинская, Виктор Алисов, Геннадий Меркулов
Director:Егор Баранов
Cast:Иван Охлобыстин, Евгений Стычкин, Оксана Фандера, Игорь Жижикин, Сергей Бадюк, Александр Стриженов, Павел Прилучный, Мария Голубкина, Александр Сухинин, Михаил Горевой
Long Description: И пока спецслужбы во главе с секретным агентом Н7 пытаются ликвидировать банду Соловья-Разбойника, он, со свойственным ему драйвом и озорством, восстанавливает в родном краю справедливость. Но рано или поздно любой «сказке» приходит конец….
Description: История о дерзком романтике Соловьёве Севастьяне Григорьевиче, cтупившем по зову крови на лихую стезю русского разбоя.
Release Date: 2012-11-22T23:00:00Z
Genre: Comedy
Artist:Егор Баранов
Name: Соловей-Разбойник
MediaInfo
Код:
General
Complete name: /Users/imac/HandBrake/Соловей разбойник.2012.x264.BDRip.1024x.m4v
Format: MPEG-4
Codec ID: M4V
File size: 1.49 GiB
Duration: 1h 31mn
Overall bit rate mode: Variable
Overall bit rate: 2 331 Kbps
Movie name: Соловей-Разбойник
Performer:Егор Баранов
Genre: Comedy
Recorded date: UTC 2012-11-22 23:00:00
Encoded date: UTC 2012-12-08 11:16:44
Tagged date: UTC 2012-12-08 11:17:13
Cover: Yes
desc: История о дерзком романтике Соловьёве Севастьяне Григорьевиче, cтупившем по зову крови на лихую стезю русского разбоя.
ldes: И пока спецслужбы во главе с секретным агентом Н7 пытаются ликвидировать банду Соловья-Разбойника, он, со свойственным ему драйвом и озорством, восстанавливает в родном краю справедливость. Но рано или поздно любой «сказке» приходит конец….
stik: 9
rtng: 0
cnID: 468195
xid: Apple:vendor_id:2012-468195
iTunMOVI: <?xml version="1.0" encoding="UTF-8"?> / <!DOCTYPE plist PUBLIC "-/Apple/DTD PLIST 1.0/EN" "http://www.apple.com/DTDs/PropertyList-1.0.dtd"> / <plist version="1.0"> / <dict> /<key>cast</key> /<array> /<dict> /<key>name</key> /<string> Иван Охлобыстин</string> /</dict> /<dict> /<key>name</key> /<string>Евгений Стычкин</string> /</dict> /<dict> /<key>name</key> /<string>Оксана Фандера</string> /</dict> /<dict> /<key>name</key> /<string>Игорь Жижикин</string> /</dict> /<dict> /<key>name</key> /<string>Сергей Бадюк</string> /</dict> /<dict> /<key>name</key> /<string>Александр Стриженов</string> /</dict> /<dict> /<key>name</key> /<string>Павел Прилучный</string> /</dict> /<dict> /<key>name</key> /<string>Мария Голубкина</string> /</dict> /<dict> /<key>name</key> /<string>Александр Сухинин</string> /</dict> /<dict> /<key>name</key> /<string>Михаил Горевой</string> /</dict> /</array> /<key>directors</key> /<array> /<dict> /<key>name</key> /<string> Егор Баранов</string> /</dict> /</array> /<key>producers</key> /<array> /<dict> /<key>name</key> /<string>Любовь Калинская</string> /</dict> /<dict> /<key>name</key> /<string>Виктор Алисов</string> /</dict> /<dict> /<key>name</key> /<string>Геннадий Меркулов</string> /</dict> /</array> /<key>screenwriters</key> /<array> /<dict> /<key>name</key> /<string>Иван Охлобыстин</string> /</dict> /</array> / </dict> / </plist>
Video #1
ID: 1
Format: AVC
Format/Info: Advanced Video Codec
Format profile: [email protected]
Format settings, CABAC: Yes
Format settings, ReFrames: 9 frames
Codec ID: avc1
Codec ID/Info: Advanced Video Coding
Duration: 1h 31mn
Bit rate mode: Variable
Bit rate: 2 200 Kbps
Width: 1 024 pixels
Height: 432 pixels
Display aspect ratio: 2.40:1
Frame rate mode: Variable
Frame rate: 23.976 fps
Minimum frame rate: 20.671 fps
Maximum frame rate: 24.318 fps
Color space: YUV
Chroma subsampling: 4:2:0
Bit depth: 8 bits
Scan type: Progressive
Bits/(Pixel*Frame): 0.207
Stream size: 1.41 GiB (94%)
Writing library: x264 core 120
Encoding settings: cabac=1 / ref=9 / deblock=1:0:0 / analyse=0x3:0x113 / me=umh / subme=9 / psy=1 / psy_rd=1.00:0.00 / mixed_ref=1 / me_range=32 / chroma_me=1 / trellis=1 / 8x8dct=1 / cqm=0 / deadzone=21,11 / fast_pskip=1 / chroma_qp_offset=-2 / threads=12 / sliced_threads=0 / nr=0 / decimate=1 / interlaced=0 / bluray_compat=0 / constrained_intra=0 / bframes=6 / b_pyramid=2 / b_adapt=2 / b_bias=0 / direct=1 / weightb=1 / open_gop=0 / weightp=2 / keyint=240 / keyint_min=24 / scenecut=40 / intra_refresh=0 / rc_lookahead=40 / rc=2pass / mbtree=1 / bitrate=2200 / ratetol=1.0 / qcomp=0.60 / qpmin=3 / qpmax=69 / qpstep=4 / cplxblur=20.0 / qblur=0.5 / ip_ratio=1.40 / aq=1:1.00
Language: Russian
Encoded date: UTC 2012-12-08 11:16:45
Tagged date: UTC 2012-12-08 11:17:05
Color primaries: BT.709-5, BT.1361, IEC 61966-2-4, SMPTE RP177
Transfer characteristics: BT.709-5, BT.1361
Matrix coefficients: BT.709-5, BT.1361, IEC 61966-2-4 709, SMPTE RP177
Video #2
ID: 4
Format: JPEG
Codec ID: jpeg
Duration: 1h 31mn
Bit rate mode: Variable
Bit rate: 772 bps
Width: 640 pixels
Height: 270 pixels
Display aspect ratio: 2.40:1
Frame rate mode: Variable
Frame rate: 0.002 fps
Minimum frame rate: 0.001 fps
Maximum frame rate: 0.005 fps
Color space: YUV
Chroma subsampling: 4:2:0
Bit depth: 8 bits
Compression mode: Lossy
Bits/(Pixel*Frame): 2.234
Stream size: 565 KiB (0%)
Language: Russian
Encoded date: UTC 2012-12-08 11:17:13
Tagged date: UTC 2012-12-08 11:17:13
Audio
ID: 2
Format: AAC
Format/Info: Advanced Audio Codec
Format profile: LC
Codec ID: 40
Duration: 1h 31mn
Bit rate mode: Variable
Bit rate: 125 Kbps
Maximum bit rate: 195 Kbps
Channel(s): 2 channels
Channel positions: Front: L R
Sampling rate: 48.0 KHz
Compression mode: Lossy
Stream size: 82.1 MiB (5%)
Language: Russian
Encoded date: UTC 2012-12-08 11:16:45
Tagged date: UTC 2012-12-08 11:17:08
Text
ID: 3
Format: Apple text
Codec ID: text
Duration: 1h 31mn
Bit rate mode: Constant
Bit rate: 0 bps
Stream size: 288 Bytes (0%)
Language: Russian
Encoded date: UTC 2012-12-08 11:17:08
Tagged date: UTC 2012-12-08 11:17:08
Menu
00:00:00.000: Chapter 01
00:06:16.209: Chapter 02
00:15:28.886: Chapter 03
00:27:35.153: Chapter 04
00:39:01.421: Chapter 05
00:49:36.889: Chapter 06
00:56:01.147: Chapter 07
01:01:00.988: Chapter 08
01:04:11.011: Chapter 09
01:13:12.051: Chapter 10
01:17:37.399: Chapter 11
01:27:16.352: Chapter 12
x264 лог
Код:
x264 [info]: frame I:1274Avg QP:15.41size: 81109PSNR Mean Y:47.70 U:49.43 V:49.93 Avg:48.25 Global:47.71
x264 [info]: frame P:33672 Avg QP:18.48size: 23859PSNR Mean Y:46.49 U:48.40 V:49.09 Avg:47.03 Global:45.23
x264 [info]: frame B:96903 Avg QP:21.37size:6244PSNR Mean Y:43.82 U:45.80 V:46.95 Avg:44.47 Global:44.00
x264 [info]: consecutive B-frames:4.3%3.2%6.7% 46.8% 13.0% 15.9% 10.2%
x264 [info]: mb II16..4: 11.2% 61.0% 27.8%
x264 [info]: mb PI16..4:2.0%8.1%2.8%P16..4: 33.3% 23.5% 16.2%0.0%0.0%skip:14.1%
x264 [info]: mb BI16..4:0.2%0.9%0.5%B16..8: 39.3%8.9%3.2%direct: 3.6%skip:43.3%L0:43.2% L1:45.2% BI:11.7%
x264 [info]: 8x8 transform intra:61.6% inter:68.3%
x264 [info]: coded y,uvDC,uvAC intra: 81.4% 87.3% 71.8% inter: 23.5% 26.1% 8.4%
x264 [info]: i16 v,h,dc,p: 38% 28%5% 28%
x264 [info]: i8 v,h,dc,ddl,ddr,vr,hd,vl,hu: 10%9%4% 10% 14% 14% 14% 12% 13%
x264 [info]: i4 v,h,dc,ddl,ddr,vr,hd,vl,hu:8%9%3%9% 15% 14% 15% 12% 14%
x264 [info]: i8c dc,h,v,p: 40% 23% 19% 19%
x264 [info]: Weighted P-Frames: Y:3.0% UV:2.0%
x264 [info]: ref P L0: 49.1% 12.5% 14.7%6.9%5.0%4.2%3.3%2.2%2.1%0.2%0.0%
x264 [info]: ref B L0: 75.7% 10.7%5.8%2.7%2.1%1.6%0.9%0.3%
x264 [info]: ref B L1: 91.9%8.1%
x264 [info]: SSIM Mean Y:0.9827642 (17.636db)
x264 [info]: PSNR Mean Y:44.538 U:46.500 V:47.528 Avg:45.161 Global:44.310 kb/s:2199.25
Скриншоты



Вернуться к началу
 Профиль Отправить личное сообщение  
 
   Похожие торренты   Автор   Торрент   Размер 
В этой теме нет новых непрочитанных сообщений. Коллекционер 2 / The Collection [ужасы, боевик, триллер, 2012] BDRip 720p, Dub [iPad]

salma3

0 | 0

1.73 ГБ

В этой теме нет новых непрочитанных сообщений. Расплата / The Accountant (Боевик, триллер, драма, криминал, 2016) BDRip | iPad | iTunes

marya111

294 | 40

2.2 ГБ

В этой теме нет новых непрочитанных сообщений. Третий лишний / Ted [фэнтези, комедия, 2012] BDRip 720p, Dub [iPad] [Лицензия]

salma3

16 | 10

2.67 ГБ

В этой теме нет новых непрочитанных сообщений. Любой ценой / Hell or High Water [боевик, драма, криминал, вестерн, 2016] BDRip 720p, Dub [iPad] [Лицензия]

salma3

65 | 3

2.31 ГБ

В этой теме нет новых непрочитанных сообщений. Человек-муравей / Ant-Man [фантастика, боевик, комедия, 2015] BDRip 720p, Dub [iPad] [Лицензия]

salma3

85 | 19

2.15 ГБ

В этой теме нет новых непрочитанных сообщений. Джанго освобожденный / Django Unchained [драма, вестерн, приключения, комедия, 2012] BDRip 720p, Dub [iPad] [Лицензия]

salma3

96 | 10

3.47 ГБ

В этой теме нет новых непрочитанных сообщений. Бен-Гур / Ben-Hur [боевик, драма, приключения, 2016] BDRip 720p, Du [iPad] [Лицензия]

salma3

0 | 0

2.62 ГБ


Начать новую тему Ответить на тему  [ 1 сообщение ] 




Для Мосгорсуда, Роскомнадзора и рекламодателей:: mosgorsud-torrent[собачка]yandex.ru
cron