Торрент файл
скачать торрент магнет ссылка Добавлен: 12 янв 2013, 23:51
Размер: 2.84 ГБ
Сидеров: 5
Личеров: 3
Автор

СообщениеДобавлено: 12 янв 2013, 23:51 

Не в сети
Супермодератор
Аватара пользователя
Дата регистрации:
11 апр 2010, 18:10
Спасибо: 5995 / 7
Сообщения: 56684
id="p-25224744-1">Миссия невыполнима: Протокол Фантом
Mission: Impossible - Ghost Protocol
Общая информация
Год выпуска: 2011
Страна: США
Жанр: боевик, триллер, приключения
Продолжительность: 02:12:56



Создатели и актеры
Режиссеры: Брэд Берд / Brad Bird
В ролях: Том Круз, Пола Пэттон, Саймон Пегг, Джереми Реннер, Микаэл Нюквист, Владимир Машков, Самули Эдельманн, Иван Шведов, Анил Капур, Леа Сейду
Сценарий: Джош Аппелбаум, Андре Немец, Брюс Геллер
Продюссеры: Джей Джей Абрамс, Брайан Берк, Том Круз



Описание
Специальный агент отряда «Миссия невыполнима» Итан Хант и его коллеги несправедливо обвинены в причастности к взрыву Кремля. Президент инициирует «Протокол Фантом», в результате которого спецподразделение ликвидировано, и Итан остается без какой-либо поддержки. Он намерен очистить свое доброе имя и предотвратить новую атаку, но делать это ему придется вместе с командой коллег, истинных мотивов которых он до конца не знает.


Технические параметры
Исходник: BD Remux
Формат: MP4 (контейнер m4v)
Перевод: Русский (полное дублирование)
Субтитры: Русские (форсированные), Русские (полные), Английские (форсированные), Английские (полные)
Навигация по главам (с изображениями)
iTunes Meta Tags
Код:
Код:
Media Type: Movie
Sort Name: Mission: Impossible - Ghost Protocol
XID: Apple:vendor_id:2011-472362
Content ID: 501587325
Copyright: © 2011 by Paramount Pictures.
ScreenWriters: Джош Аппелбаум, Андре Немец, Брюс Геллер
Producers: Джей Джей Абрамс, Брайан Берк, Том Круз
Director: Брэд Бёрд
Cast: Том Круз, Пола Пэттон, Саймон Пегг, Джереми Реннер, Микаэл Нюквист, Владимир Машков, Самули Эдельманн, Иван Шведов, Анил Капур, Леа Сейду
Rating: PG-13
Long Description: Специальный агент отряда «Миссия невыполнима» Итан Хант и его коллеги несправедливо обвинены в причастности к взрыву Кремля. Президент инициирует «Протокол Фантом», в результате которого спецподразделение ликвидировано, и Итан остается без какой-либо поддержки. Он намерен очистить свое доброе имя и предотвратить новую атаку, но делать это ему придется вместе с командой коллег, истинных мотивов которых он до конца не знает.
Description: Специальный агент отряда «Миссия невыполнима» Итан Хант и его коллеги несправедливо обвинены в причастности к взрыву Кремля. Президент инициирует «Протокол Фантом»...
Release Date: 2011-12-07T07:00:00Z
Genre: Action & Adventure
Artist: Brad Bird
Name: Mission: Impossible - Ghost Protocol

Видео: H.264, 1024x428 (2.40:1), 23.976 fps, ~2750 kbps
Аудио 1: Русский (AAC Stereo 48 kHz, 166 kbps)
Аудио 2: Английский (AAC Stereo 48 kHz, 167 kbps)
Скриншоты SD
Media Info
Код:
Код:
Общее
Полное имя                               : D:\Media\iPad\Ghost Protocol (iPad).m4v
Формат                                   : MPEG-4
Профиль формата                          : Base Media / Version 2
Идентификатор кодека                     : mp42
Размер файла                             : 2,84 Гбайт
Продолжительность                        : 2 ч. 12 м.
Режим общего битрейта                    : Переменный
Общий поток                              : 3064 Кбит/сек
Название фильма                          : Mission: Impossible - Ghost Protocol
Исполнитель                              : Brad Bird
Жанр                                     : Action & Adventure
Дата записи                              : UTC 2011-12-07 07:00:00
Дата кодирования                         : UTC 2012-10-22 14:15:24
Дата пометки                             : UTC 2012-10-23 03:36:17
Правообладатель                          : © 2011 by Paramount Pictures.
Обложка                                  : Yes
sonm                                     : Mission: Impossible - Ghost Protocol
desc                                     : Специальный агент отряда «Миссия невыполнима» Итан Хант и его коллеги несправедливо обвинены в причастности к взрыву Кремля. Президент инициирует «Протокол Фантом»...
ldes                                     : Специальный агент отряда «Миссия невыполнима» Итан Хант и его коллеги несправедливо обвинены в причастности к взрыву Кремля. Президент инициирует «Протокол Фантом», в результате которого спецподразделение ликвидировано, и Итан остается без какой-либо поддержки. Он намерен очистить свое доброе имя и предотвратить новую атаку, но делать это ему придется вместе с командой коллег, истинных мотивов которых он до конца не знает.
hdvd                                     : 0
stik                                     : 9
rtng                                     : 0
cnID                                     : 501587325
xid                                      : Apple:vendor_id:2011-472362
iTunEXTC                                 : mpaa|PG-13|300|
iTunMOVI                                 : <?xml version="1.0" encoding="UTF-8"?> / <!DOCTYPE plist PUBLIC "-/Apple/DTD PLIST 1.0/EN" "http:/www.apple.com/DTDs/PropertyList-1.0.dtd"> / <plist version="1.0"> /  <dict> /   <key>cast</key> /   <array> /    <dict> /     <key>name</key> /     <string>Том Круз</string> /    </dict> /    <dict> /     <key>name</key> /     <string>Пола Пэттон</string> /    </dict> /    <dict> /     <key>name</key> /     <string>Саймон Пегг</string> /    </dict> /    <dict> /     <key>name</key> /     <string>Джереми Реннер</string> /    </dict> /    <dict> /     <key>name</key> /     <string>Микаэл Нюквист</string> /    </dict> /    <dict> /     <key>name</key> /     <string>Владимир Машков</string> /    </dict> /    <dict> /     <key>name</key> /     <string>Самули Эдельманн</string> /    </dict> /    <dict> /     <key>name</key> /     <string>Иван Шведов</string> /    </dict> /    <dict> /     <key>name</key> /     <string>Анил Капур</string> /    </dict> /    <dict> /     <key>name</key> /     <string>Леа Сейду</string> /    </dict> /   </array> /   <key>directors</key> /   <array> /    <dict> /     <key>name</key> /     <string>Брэд Бёрд</string> /    </dict> /   </array> /   <key>producers</key> /   <array> /    <dict> /     <key>name</key> /     <string>Джей Джей Абрамс</string> /    </dict> /    <dict> /     <key>name</key> /     <string>Брайан Берк</string> /    </dict> /    <dict> /     <key>name</key> /     <string>Том Круз</string> /    </dict> /   </array> /   <key>screenwriters</key> /   <array> /    <dict> /     <key>name</key> /     <string>Джош Аппелбаум</string> /    </dict> /    <dict> /     <key>name</key> /     <string>Андре Немец</string> /    </dict> /    <dict> /     <key>name</key> /     <string>Брюс Геллер</string> /    </dict> /   </array> /  </dict> / </plist>
Видео #1
Идентификатор                            : 1
Формат                                   : AVC
Формат/Информация                        : Advanced Video Codec
Профиль формата                          : [email protected]
Параметр CABAC формата                   : Да
Параметр ReFrames формата                : 10 кадров
Идентификатор кодека                     : avc1
Идентификатор кодека/Информация          : Advanced Video Coding
Продолжительность                        : 2 ч. 12 м.
Вид битрейта                             : Переменный
Битрейт                                  : 2750 Кбит/сек
Ширина                                   : 1024 пикселя
Высота                                   : 428 пикселей
Соотношение сторон                       : 2,40:1
Режим частоты кадров                     : Переменный
Частота кадров                           : 23,976 кадра/сек
Минимальная частота кадров               : 23,810 кадра/сек
Максимальная частота кадров              : 24,570 кадров/сек
Цветовое пространство                    : YUV
Субдискретизация насыщенности            : 4:2:0
Битовая глубина                          : 8 бит
Тип развёртки                            : Прогрессивная
Бит/(Пиксели*Кадры)                      : 0.262
Размер потока                            : 2,53 Гбайт (89%)
Библиотека кодирования                   : x264 core 120
Настройки программы                      : cabac=1 / ref=10 / deblock=1:-2:-1 / analyse=0x3:0x113 / me=umh / subme=10 / psy=1 / psy_rd=1.00:0.10 / mixed_ref=1 / me_range=32 / chroma_me=1 / trellis=2 / 8x8dct=1 / cqm=0 / deadzone=21,11 / fast_pskip=1 / chroma_qp_offset=-3 / threads=12 / sliced_threads=0 / nr=0 / decimate=1 / interlaced=0 / bluray_compat=0 / constrained_intra=0 / bframes=9 / b_pyramid=0 / b_adapt=1 / b_bias=0 / direct=1 / weightb=0 / open_gop=0 / weightp=0 / keyint=240 / keyint_min=24 / scenecut=40 / intra_refresh=0 / rc_lookahead=40 / rc=2pass / mbtree=1 / bitrate=2750 / ratetol=1.0 / qcomp=0.60 / qpmin=3 / qpmax=69 / qpstep=4 / cplxblur=20.0 / qblur=0.5 / vbv_maxrate=9500 / vbv_bufsize=9500 / nal_hrd=none / ip_ratio=1.40 / aq=1:0.90
Язык                                     : English
Дата кодирования                         : UTC 2012-10-22 14:15:24
Дата пометки                             : UTC 2012-10-22 19:59:16
Основные цвета                           : BT.709-5, BT.1361, IEC 61966-2-4, SMPTE RP177
Характеристики трансфера                 : BT.709-5, BT.1361
Коэффициенты матрицы                     : BT.709-5, BT.1361, IEC 61966-2-4 709, SMPTE RP177
Видео #2
Идентификатор                            : 9
Формат                                   : JPEG
Идентификатор кодека                     : jpeg
Продолжительность                        : 2 ч. 12 м.
Вид битрейта                             : Переменный
Битрейт                                  : 791 бит/сек
Ширина                                   : 640 пикселей
Высота                                   : 267 пикселей
Соотношение сторон                       : 2,40:1
Режим частоты кадров                     : Переменный
Частота кадров                           : 0,003 кадр/сек
Минимальная частота кадров               : 0,002 кадр/сек
Максимальная частота кадров              : 0,004 кадр/сек
Цветовое пространство                    : YUV
Субдискретизация насыщенности            : 4:2:0
Битовая глубина                          : 8 бит
Метод сжатия                             : С потерями
Бит/(Пиксели*Кадры)                      : 1.543
Размер потока                            : 644 Кбайт (0%)
Язык                                     : English
Дата кодирования                         : UTC 2012-10-23 03:02:44
Дата пометки                             : UTC 2012-10-23 03:02:46
Аудио #1
Идентификатор                            : 2
Формат                                   : AAC
Формат/Информация                        : Advanced Audio Codec
Профиль формата                          : LC
Идентификатор кодека                     : 40
Продолжительность                        : 2 ч. 12 м.
Вид битрейта                             : Переменный
Битрейт                                  : 166 Кбит/сек
Максимальный битрейт                     : 246 Кбит/сек
Каналы                                   : 2 канала
Расположение каналов                     : Front: L R
Частота                                  : 48,0 КГц
Метод сжатия                             : С потерями
Задержка видео                           : -42 мс.
Размер потока                            : 158 Мбайт (5%)
Язык                                     : Russian
Дата кодирования                         : UTC 2012-10-23 03:00:46
Дата пометки                             : UTC 2012-10-23 03:01:27
Аудио #2
Идентификатор                            : 3
Формат                                   : AAC
Формат/Информация                        : Advanced Audio Codec
Профиль формата                          : LC
Идентификатор кодека                     : 40
Продолжительность                        : 2 ч. 12 м.
Вид битрейта                             : Переменный
Битрейт                                  : 167 Кбит/сек
Максимальный битрейт                     : 243 Кбит/сек
Каналы                                   : 2 канала
Расположение каналов                     : Front: L R
Частота                                  : 48,0 КГц
Метод сжатия                             : С потерями
Задержка видео                           : -42 мс.
Размер потока                            : 159 Мбайт (5%)
Язык                                     : English
Дата кодирования                         : UTC 2012-10-23 03:00:46
Дата пометки                             : UTC 2012-10-23 03:02:19
Текст #1
Идентификатор                            : 4
Формат                                   : Timed text
Режим смешивания                         : sbtl
Идентификатор кодека                     : tx3g
Продолжительность                        : 1 ч. 59 м.
Вид битрейта                             : Переменный
Битрейт                                  : 1 бит/сек
Задержка видео                           : -42 мс.
Размер потока                            : 481 байт (0%)
Язык                                     : Russian
Дата кодирования                         : UTC 2012-10-23 03:00:46
Дата пометки                             : UTC 2012-10-23 03:02:19
Текст #2
Идентификатор                            : 5
Формат                                   : Timed text
Режим смешивания                         : sbtl
Идентификатор кодека                     : tx3g
Продолжительность                        : 2 ч. 6 м.
Вид битрейта                             : Переменный
Битрейт                                  : 68 бит/сек
Задержка видео                           : -42 мс.
Размер потока                            : 63,1 Кбайт (0%)
Язык                                     : Russian
Дата кодирования                         : UTC 2012-10-23 03:00:46
Дата пометки                             : UTC 2012-10-23 03:02:19
Текст #3
Идентификатор                            : 6
Формат                                   : Timed text
Режим смешивания                         : sbtl
Идентификатор кодека                     : tx3g
Продолжительность                        : 1 ч. 58 м.
Вид битрейта                             : Переменный
Битрейт                                  : 2 бит/сек
Задержка видео                           : -42 мс.
Размер потока                            : 2,11 Кбайт (0%)
Язык                                     : English
Дата кодирования                         : UTC 2012-10-23 03:00:46
Дата пометки                             : UTC 2012-10-23 03:02:19
Текст #4
Идентификатор                            : 7
Формат                                   : Timed text
Режим смешивания                         : sbtl
Идентификатор кодека                     : tx3g
Продолжительность                        : 2 ч. 6 м.
Вид битрейта                             : Переменный
Битрейт                                  : 45 бит/сек
Задержка видео                           : -42 мс.
Размер потока                            : 42,0 Кбайт (0%)
Язык                                     : English
Дата кодирования                         : UTC 2012-10-23 03:00:46
Дата пометки                             : UTC 2012-10-23 03:02:20
Текст #5
Идентификатор                            : 11
Формат                                   : Apple text
Идентификатор кодека                     : text
Продолжительность                        : 2 ч. 12 м.
Вид битрейта                             : Переменный
Битрейт                                  : 0 бит/сек
Задержка видео                           : -42 мс.
Размер потока                            : 471 байт (0%)
Дата кодирования                         : UTC 2012-10-23 03:36:04
Дата пометки                             : UTC 2012-10-23 03:36:04
Меню
00:00:00.000                             : Chapter 1
00:04:41.090                             : Chapter 2
00:11:28.089                             : Chapter 3
00:20:01.095                             : Chapter 4
00:27:35.032                             : Chapter 5
00:33:28.017                             : Chapter 6
00:38:18.008                             : Chapter 7
00:44:46.010                             : Chapter 8
00:51:37.021                             : Chapter 9
00:56:05.015                             : Chapter 10
01:02:50.018                             : Chapter 11
01:09:17.082                             : Chapter 12
01:16:32.037                             : Chapter 13
01:22:18.051                             : Chapter 14
01:31:17.005                             : Chapter 15
01:35:57.037                             : Chapter 16
01:42:49.091                             : Chapter 17
01:51:01.078                             : Chapter 18
01:58:26.039                             : Chapter 19
02:05:58.084                             : Chapter 20

x264 Log
Код:
Код:
x264 [info]: frame I:2894  Avg QP:16.72  size: 53116  PSNR Mean Y:46.99 U:52.75 V:52.46 Avg:48.11 Global:47.75
x264 [info]: frame P:101193 Avg QP:17.57  size: 20405  PSNR Mean Y:46.37 U:53.09 V:52.86 Avg:47.46 Global:46.97
x264 [info]: frame B:87152 Avg QP:20.19  size:  5687  PSNR Mean Y:45.32 U:52.66 V:52.24 Avg:46.48 Global:46.00
x264 [info]: consecutive B-frames: 27.7% 34.7% 10.1% 12.2% 13.1%  1.8%  0.1%  0.0%  0.0%  0.2%
x264 [info]: mb I  I16..4: 11.9% 68.5% 19.6%
x264 [info]: mb P  I16..4:  0.9%  6.8%  1.0%  P16..4: 40.0% 28.3% 15.7%  0.0%  0.0%    skip: 7.4%
x264 [info]: mb B  I16..4:  0.0%  0.4%  0.1%  B16..8: 46.2% 11.0%  2.9%  direct: 4.3%  skip:35.1%  L0:40.9% L1:46.4% BI:12.6%
x264 [info]: 8x8 transform intra:76.0% inter:57.4%
x264 [info]: coded y,uvDC,uvAC intra: 88.0% 76.2% 55.3% inter: 30.8% 26.8% 7.3%
x264 [info]: i16 v,h,dc,p: 28% 13% 16% 43%
x264 [info]: i8 v,h,dc,ddl,ddr,vr,hd,vl,hu: 10%  8%  8% 10% 14% 13% 13% 12% 13%
x264 [info]: i4 v,h,dc,ddl,ddr,vr,hd,vl,hu: 12%  9%  4% 10% 15% 14% 13% 11% 12%
x264 [info]: i8c dc,h,v,p: 45% 23% 18% 13%
x264 [info]: ref P L0: 61.5% 14.2%  9.7%  4.0%  3.1%  2.4%  2.0%  1.2%  1.0%  1.0%
x264 [info]: ref B L0: 76.0% 10.8%  5.4%  2.5%  1.8%  1.3%  1.0%  0.6%  0.5%
x264 [info]: SSIM Mean Y:0.9830627 (17.712db)
x264 [info]: PSNR Mean Y:45.898 U:52.889 V:52.574 Avg:47.026 Global:46.511 kb/s:2722.23



Вернуться к началу
 Профиль Отправить личное сообщение  
 
   Похожие торренты   Автор   Торрент   Размер 
В этой теме нет новых непрочитанных сообщений. Миссия невыполнима: Протокол Фантом / Mission: Impossible - Ghost Protocol [боевик, триллер, приключения, 2011] BDRip-HEVC 1080p, Dub

salma3

23 | 11

7.81 ГБ

В этой теме нет новых непрочитанных сообщений. Миссия невыполнима: Протокол Фантом / Mission: Impossible - Ghost Protocol [боевик, триллер, приключения, 2011] UHD BDRemux 2160p, Dub [4K]

salma3

5 | 2

71.79 ГБ

В этой теме нет новых непрочитанных сообщений. Миссия: невыполнима 2 / Mission: Impossible II [боевик, триллер, приключения, 2000] BDRip, Dub

salma3

0 | 0

1.44 ГБ

В этой теме нет новых непрочитанных сообщений. Миссия невыполнима 3 / Mission Impossible III [боевик, триллер, приключения, 2006] BDRip-HEVC 1080p, Dub

salma3

0 | 0

9.8 ГБ

В этой теме нет новых непрочитанных сообщений. Миссия: невыполнима / Mission: Impossible [боевик, триллер, приключения, 1996] BDRip-HEVC 1080p, Dub

salma3

0 | 0

8.01 ГБ

В этой теме нет новых непрочитанных сообщений. Миссия: невыполнима / Mission: Impossible [боевик, триллер, приключения, 1996] BDRip-HEVC 1080p, Dub

salma3

0 | 0

8.01 ГБ

В этой теме нет новых непрочитанных сообщений. Миссия: невыполнима 2 / Mission: Impossible II [боевик, триллер, приключения, 2000] BDRip-HEVC 1080p, Dub

salma3

0 | 0

9.03 ГБ


Начать новую тему Ответить на тему  [ 1 сообщение ] 




Для Мосгорсуда, Роскомнадзора и рекламодателей:: mosgorsud-torrent[собачка]yandex.ru
cron