Торрент файл
скачать торрент магнет ссылка Добавлен: 12 янв 2013, 23:51
Размер: 502.33 МБ
Сидеров: 0
Личеров: 3
Автор

СообщениеДобавлено: 12 янв 2013, 23:51 

Не в сети
Супермодератор
Аватара пользователя
Дата регистрации:
11 апр 2010, 18:10
Спасибо: 5996 / 7
Сообщения: 56684
id="p-25224744-1">Реквием по мечте / Requiem for a Dream
Год выпуска: 2000
Страна: США
Жанр: Драма
Продолжительность: 102 мин.
Перевод: Профессиональный (полное дублирование)
Русские субтитры: нет
Режиссер: Даррен Аронофски
В ролях: Эллен Берстин,Джаред Лето,Дженнифер Коннелли,Марлон Уайанс,Кристофер МакДональд,Луиза Лэссер,Марша Джин Кёрц,Джанет Сарно,Сюзанн Шеперд,Джоэнн Гордон.
Описание: Главные герои — мать и сын, Сара и Гарри Голдфарб, подружка Гарри Мэрион Силвер и друг Гарри Тайрон Лав. Действие в фильме разворачивается на протяжении трёх времен года: летом, осенью и зимой. На протяжении этого времени жизни четырёх героев стремительно и жестоко рушатся.
Качество: DVDRip
Формат: MP4
Видео кодек: H.264
Аудио кодек: AAC
Видео: 480х272
Аудио: 146Кbps
Доп. информация:
* Роль Гарри Голдфарба изначально предназначалась для Джованни Рибиси. Даррен Аранофски после прочтения одноименной новеллы Хьюберта Селби, написанной в 1978 году, представлял себе главного героя именно таким, как Джованни.
* Как правило, стандартный фильм состоит из 600 непрерывных фрагментов. В «Реквиеме» таких фрагментов порядка 2000.
* Режиссер Даррен Аранофски настоятельно попросил исполнителей главных мужских ролей Джареда Лето и Марлона Уайанса на 30 дней исключить из своей жизни сексуальные контакты и употребление сахара, чтобы понять, как ведут себя люди, испытывающие непреодолимое желание.
* Во время монолога в исполнении Эллен Бёрстин о том, каково ей чувствовать себя старухой, оператор Мэттью Либатик случайно отвел камеру в сторону от объекта съемок. Даррен был взбешен, однако впоследствии понял причину, по которой оператор допустил эту оплошность. Сцена в исполнении Эллен настолько впечатлила оператора, что последний дал волю своим эмоциям и расплакался. Слезы, разумеется, попали на объектив камеры. Чтобы избежать праведного режиссерского гнева Мэттью решил просто запороть дубль, что, впрочем, не помешало Даррену включить в финальную версию именно эти кадры.
* Чтобы казаться на экране естественной, Эллен Берстин ежедневно тратила около 4 часов вне съемочной площадки, расхаживая по дому в костюмах, увеличивающих её вес (до 20 кг) и комплекцию. Всего за время съемок было использовано 4 типа шейных накладок, 2 объемных костюма и 9 париков.
* Для того, чтобы лучше вжиться в образ исполняемого им персонажа — Гарри Голдфарба, Джаред Лето похудел на 13 килограммов и подружился с настоящими Бруклинскими наркоманами, употребляющими героин.
* Сцена, в которой Гарри разговаривает по телефону с Мэрион, снималась в одном павильоне одновременно. Безусловно, это было на руку актерам, так как они могли сразу откалибровать реакции своего партнера по сцене.
* Галлюцинация, в которой Гарри обрушивается с огромной высоты, снималась с помощью камеры, подвешенной к «тарзанке». У съемочной группы были некоторые сомнения, сможет ли камера остановиться за несколько сантиметров до земли или нет. Впрочем, ни одной камеры при съемках этого эпизода не пострадало.
* Съемки фрагментов телевизионного шоу продлились всего один день, а ведущий Кристофер МакДональд неплохо импровизировал, от чего пришел в восторг сам Даррен Аранофски. По окончании работы вся съемочная группа поблагодарила Кристофера бурными аплодисментами.
* По сценарию отец персонажа Дженнифер Коннелли занимается изготовлением и продажей одежды. В реальной жизни отец Дженнифер Коннелли также занят в этой области бизнеса.
* Как мы помним, с телеэкрана звучат призывы о «трех вещах, которые вы должны сделать, чтобы изменить себя»: - отказаться от мяса; - отказаться от сахара; - а вот третьего лозунга мы так и не услышали, хотя он присутствует на режиссерском DVD-релизе.
* В конце картины главные действующие лица что-то держат в своих ртах: -Мэрион сжимает во рту денежный чек от одного из участников вечеринки; -Сара во время электрошока сжимает в зубах резиновую палку; -на Гарри кислородная маска; -и только Тайрон является исключением: он испытывает спазмы желудка.
* В самом начале фильма мы имеем возможность услышать, как струнный квартет готовится к исполнению заглавной мелодии. Перед тем, как начинаются титры, мы можем услышать голос дирижера, дающий команду начинать выступление. Музыканты именуются не иначе как «The Kronos Quartet», а задушевную музыку к фильму написал композитор Клинт Мэнселл.
* В картине мы можем увидеть в эпизодических ролях как сценариста Хуберта Селби (один из тюремных надзирателей), так и самого режиссера Аранофски (один из посетителей вечеринки, устроенной Большим Тимом). Кроме того, в картине можно увидеть и отца Даррена. Он играет посетителя метро, говорящего Саре Голдфарб, что она ужасно истощена.
* Сцена кричащей девушки, находящейся в ванне под водой, была полностью позаимствована из японского мультфильма Perfect Blue (1998). Даррен Аранофски полностью выкупил права на этот фильм, только для того, чтобы использовать в своем опусе вышеупомянутую сцену.
* Телефон Большого Тима не отвечает устоявшимся правилам Голливуда начинать все телефонные номера с комбинации «555-».
Скриншоты
Тех.данные:
General
Полное имя : D:\торрентс\Rekviem_po_mechte_[rutracker.org].mp4
Формат : MPEG-4
Профайл формата : Base Media
Идентификатор кодека : isom
Размер файла : 502 MiB
Продолжительность : 1h 37mn
Общий поток : 724 Kbps
Дата кодирования : UTC 2009-03-13 14:42:30
Дата отметки : UTC 2009-03-13 14:42:30
Video
Формат : AVC
Формат/Информация : Advanced Video Codec
Профайл формата : [email protected]
Настройка CABAC формата : No
Настройка ReFrames формата : 6 frames
Идентификатор кодека : avc1
Идентификатор кодека/Информация : Advanced Video Coding
Продолжительность : 1h 37mn
Вид битрейта : Variable
Битрейт : 593 Kbps
Максимальный битрейт : 1 603 Kbps
Ширина : 480 pixels
Высота : 272 pixels
Соотношение кадра : 16/9
Режим частоты кадров : Constant
Частота кадров : 25.000 fps
Разрешение : 24 bits
Колориметрия : 4:2:0
Тип развёртки : Progressive
Бит/(Пиксели*Кадры) : 0.182
Размер потока : 411 MiB (82%)
Библиотека кодирования : x264 core 65 r999kMod cc51047
Настройки программы : cabac=0 / ref=6 / deblock=1:0:0 / analyse=0x1:0x131 / me=umh / subme=6 / psy_rd=1.0:0.0 / mixed_ref=1 / me_range=16 / chroma_me=1 / trellis=0 / 8x8dct=0 / cqm=0 / deadzone=21,11 / chroma_qp_offset=-2 / threads=2 / thread_queue=2 / nr=0 / decimate=1 / mbaff=0 / bframes=0 / keyint=250 / keyint_min=25 / scenecut=40(pre) / rc=crf / crf=21.0000 / qcomp=0.60 / qpmin=10 / qpmax=51 / qpstep=4 / ip_ratio=1.40 / aq=1:1.00
Дата кодирования : UTC 2009-03-13 14:42:30
Дата отметки : UTC 2009-03-13 14:44:54
Audio
Формат : AAC
Формат/Информация : Advanced Audio Codec
Версия формата : Version 4
Профайл формата : LC
Настройка SBR формата : No
Идентификатор кодека : 40
Продолжительность : 1h 36mn
Вид битрейта : Variable
Битрейт : 129 Kbps
Максимальный битрейт : 146 Kbps
Канал(ы) : 2 channels
Расположение каналов : L R
Частота : 48.0 KHz
Разрешение : 16 bits
Размер потока : 89.2 MiB (18%)
Дата кодирования : UTC 2009-03-13 14:44:33
Дата отметки : UTC 2009-03-13 14:44:54
Мои раздачи:
1)Яблочное зёрнышко(Мультфильм,аниме)
2)Обман.
5)Большой Лебовский.
7)Пи
Не забываем про кнопочку СПАСИБО
или плюс.



Вернуться к началу
 Профиль Отправить личное сообщение  
 
   Похожие торренты   Автор   Торрент   Размер 
В этой теме нет новых непрочитанных сообщений. Реквием по рокабилли / Rockabilly Requiem [драма, 2016] DVDRip, Mvo

salma3

9 | 1

1.37 ГБ

В этой теме нет новых непрочитанных сообщений. Реквием / Requiem [боевик, криминал, 2001] HDRip 720p, Dvo

salma3

0 | 0

10.86 ГБ

В этой теме нет новых непрочитанных сообщений. Реквием / Requiem [S01] [фэнтези, триллер, 2017] WEBRip, Mvo [NewStudio]

salma3

6 | 13

4.32 ГБ

В этой теме нет новых непрочитанных сообщений. Реквием по убийце / Requiem pour une tueuse [Триллер, 2011] BDRip 720р, Mvo+Sub

salma3

155 | 62

3.91 ГБ

В этой теме нет новых непрочитанных сообщений. Навстречу мечте / Чистая Страна Чистого Сердца / Pure Country Pure Heart (Дэймон Сантостефано / Damon Santostefano) [2017г., драма, музыка, WEB-DLRip] MVO

Alfredovich

0 | 0

1.37 ГБ

В этой теме нет новых непрочитанных сообщений. Фантоцци 2000 – Клонирование / Fantozzi 2000 – La clonazione [Комедия, 1999] DVDRip-AVC, Mvo+Avo

salma3

89 | 49

3.78 ГБ

В этой теме нет новых непрочитанных сообщений. Pink Martini & The Von Trapps - Dream a Little Dream [2014, Jazz, MP3]

salma3

2 | 1

110.94 МБ


Начать новую тему Ответить на тему  [ 1 сообщение ] 




Для Мосгорсуда, Роскомнадзора и рекламодателей:: mosgorsud-torrent[собачка]yandex.ru
cron