Торрент файл
скачать торрент магнет ссылка Добавлен: 12 янв 2013, 23:50
Размер: 516.42 МБ
Сидеров: 1
Личеров: 3
Автор

СообщениеДобавлено: 12 янв 2013, 23:50 

Не в сети
Супермодератор
Аватара пользователя
Дата регистрации:
11 апр 2010, 18:10
Спасибо: 5995 / 7
Сообщения: 56685
id="p-25224744-1">Легенда о пианисте / The Legend of 1900

Год выпуска: 1998
Страна: Италия
Жанр: фэнтези, драма, мелодрама, музыка
Продолжительность: 02:05:29
Перевод : Профессиональный (дублированный)
Русские субтитры: нет
Режиссёр: Джузеппе Торнаторе / Giuseppe Tornatore
В ролях: Тим Рот, Прюитт Тэйлор Винс, Мелэни Тьери, Билл Нанн, Питер Вон, Найолл О'Брайен, Габриэле Лавиа, Вернон Нерс, Альберто Васкес
Описание: Началось все с того, что в первый день 20-го столетия на пароходе «Вирджиния» в коробке из-под лимонов был найден младенец. Мальчик вырос и провел всю свою жизнь на громадном океанском лайнере, курсирующем между Америкой и Европой, ни разу не сойдя на берег.
Загадочным образом научившись играть на рояле, Дэнни Будманн Т. Д. Лемон 1900-й стал настоящим виртуозом и развлекал публику, играя в ресторанном оркестре. С ним связаны потрясающие истории, а его жизнь превратилась в красивую легенду…
Рейтинг:
Качество: HDTVRip
Ссылка на исходник: http://rutracker.org/forum/viewtopic.php?t=2345208
Формат: *.m4v
Видео кодек: H.264
аудио кодек: ААС
Разрешение: 480x208
Другие параметры видео: 23.976 fps, 444 Kbps
Аудио: 48.0 KHz, 128 Kbps
MediaInfo
General
Complete name Легенда о Пианисте.m4v
Format : MPEG-4
Format profile : Base Media / Version 2
Codec ID : mp42
File size : 516 MiB
Duration : 2h 5mn
Overall bit rate : 575 Kbps
Encoded date : UTC 2011-04-03 14:07:06
Tagged date : UTC 2011-04-03 17:27:01
Writing application : HandBrake 0.9.5 2011010300
Video
ID : 1
Format : AVC
Format/Info : Advanced Video Codec
Format profile : [email protected]
Format settings, CABAC : No
Format settings, ReFrames : 2 frames
Codec ID : avc1
Codec ID/Info : Advanced Video Coding
Duration : 2h 5mn
Bit rate mode : Variable
Bit rate : 444 Kbps
Width : 480 pixels
Height : 208 pixels
Display aspect ratio : 2.35:1
Frame rate mode : Variable
Frame rate : 23.976 fps
Minimum frame rate : 23.974 fps
Maximum frame rate : 23.981 fps
Color space : YUV
Chroma subsampling : 4:2:0
Bit depth : 8 bits
Scan type : Progressive
Bits/(Pixel*Frame) : 0.186
Stream size : 399 MiB (77%)
Writing library : x264 core 112
Encoding settings : cabac=0 / ref=2 / deblock=1:0:0 / analyse=0x1:0x111 / me=umh / subme=6 / psy=1 / psy_rd=1.00:0.00 / mixed_ref=1 / me_range=16 / chroma_me=1 / trellis=0 / 8x8dct=0 / cqm=0 / deadzone=21,11 / fast_pskip=1 / chroma_qp_offset=-2 / threads=1 / sliced_threads=0 / nr=0 / decimate=1 / interlaced=0 / constrained_intra=0 / bframes=0 / weightp=0 / keyint=240 / keyint_min=23 / scenecut=40 / intra_refresh=0 / rc_lookahead=40 / rc=crf / mbtree=1 / crf=20.0 / qcomp=0.60 / qpmin=3 / qpmax=51 / qpstep=4 / ip_ratio=1.40 / aq=1:1.00
Encoded date : UTC 2011-04-03 14:07:06
Tagged date : UTC 2011-04-03 17:27:01
Color primaries : BT.601-6 525, BT.1358 525, BT.1700 NTSC, SMPTE 170M
Transfer characteristics : BT.709-5, BT.1361
Matrix coefficients : BT.601-6 525, BT.1358 525, BT.1700 NTSC, SMPTE 170M
Audio
ID : 2
Format : AAC
Format/Info : Advanced Audio Codec
Format version : Version 4
Format profile : LC
Format settings, SBR : No
Codec ID : 40
Duration : 2h 5mn
Bit rate mode : Variable
Bit rate : 128 Kbps
Maximum bit rate : 266 Kbps
Channel(s) : 2 channels
Channel positions : Front: L R
Sampling rate : 48.0 KHz
Stream size : 115 MiB (22%)
Encoded date : UTC 2011-04-03 14:07:06
Tagged date : UTC 2011-04-03 17:27:00
Скриншоты






Вернуться к началу
 Профиль Отправить личное сообщение  
 
   Похожие торренты   Автор   Торрент   Размер 
В этой теме нет новых непрочитанных сообщений. Незнакомка / La sconosciuta (Джузеппе Торнаторе / Giuseppe Tornatore) [2006г., Италия, триллер, драма, детектив, BDRip] MVO

Alfredovich

88 | 1

2.18 ГБ

В этой теме нет новых непрочитанных сообщений. Легенда Лонгвуда / The Legend of Longwood [драма, приключения, семейный, фэнтези, 2014] HDTVRip, Mvo [официальный звук]

salma3

109 | 25

1.37 ГБ

В этой теме нет новых непрочитанных сообщений. Легенда Багера Ванса / The Legend of Bagger Vance [фэнтези, мелодрама, драма, спорт, 2000] WEBRip 1080p, Mvo

salma3

81 | 10

5.87 ГБ

В этой теме нет новых непрочитанных сообщений. Легенда о демонической кошке / Legend of the Demon Cat / Kukai / Yao mao zhuan [Драма, фэнтези, мистика, детектив, 2017] HDRip, Dvo

salma3

116 | 36

1.46 ГБ

В этой теме нет новых непрочитанных сообщений. Тaрзан. Легенда / Thе Legend of Tarzan [драма, мелодрама, приключения, 2016] BDRip, Avo [Живов]

salma3

21 | 5

1.46 ГБ

В этой теме нет новых непрочитанных сообщений. Л.О.Р.Д. Легенда о разорении династий / L.O.R.D: Legend of Ravaging Dynasties (драма, боевик, фэнтези, 2016) TC-AVC от Batafurai Team и SOUND-GROUP | L2

marya111

3 | 0

1.47 ГБ

В этой теме нет новых непрочитанных сообщений. Тарзан. Легенда / The Legend of Tarzan [Боевик, драма, мелодрама, 2016] BDRemux 1080p, Dub [Лицензия]

salma3

0 | 0

34.66 ГБ


Начать новую тему Ответить на тему  [ 1 сообщение ] 




Для Мосгорсуда, Роскомнадзора и рекламодателей:: mosgorsud-torrent[собачка]yandex.ru
cron