Торрент файл
скачать торрент магнет ссылка Добавлен: 12 янв 2013, 23:49
Размер: 3.21 ГБ
Сидеров: 1
Личеров: 3
Автор

СообщениеДобавлено: 12 янв 2013, 23:49 

Не в сети
Супермодератор
Аватара пользователя
Дата регистрации:
11 апр 2010, 18:10
Спасибо: 5995 / 7
Сообщения: 56685
id="p-25224744-1">
Вокруг света за 80 дней / Around the World in 80 Days«Let your imagination soar.»


Страна: США, Германия, Великобритания, Ирландия
Жанр: боевик, мелодрама, комедия, приключения, семейный, вестерн
Год выпуска: 2004

Перевод: Профессиональный (полное дублирование)
Перевод: Профессиональный (двухголосый, закадровый)
Оригинальная аудиодорожка: Английский
Cубтитры: Русские, Английские
Режиссер: Фрэнк Корачи / Frank Coraci

В ролях: Джеки Чан (Passepartout / Lau Xing), Стив Кугэн (Phileas Fogg), Роберт Файф (Jean Michel), Джим Броудбент (Lord Kelvin), Иэн МакНис (Colonel Kitchener), Дэвид Райалл (Lord Salisbury), Роджер Хэммонд (Lord Rhodes), Адам Годли (Mr. Sutton), Карен Мок (General Fang), Ховард Купер (Academy Member #1), Дэниэл Хинчклифф (British Valet), Wolfram Teufel (Belgian Dignitary)
Дублёры: Сергей Дьячков (Passepartout / Lau Xing), Александр Баргман (Phileas Fogg), Юрий Лазарев (Lord Kelvin), Сергей Паршин (Colonel Kitchener), Борис Смолкин (Lord Salisbury), Максим Сергеев (Mr. Sutton; Bak Mei; Orville Wright), Елена Шульман (General Fang), Станислав Концевич (Inspector Fix), Татьяна Михалевкина (Monique La Roche), Вадим Гущин (Prince Hapi), Ольга Вечерик (Indian Girl), Александр Машанов (Wong Fei Hung)

Описание: Эксцентричный лондонский изобретатель Филеас Фогг раскрыл тайны полетов, электричества и многие другие, но общество не принимает его, считая сумасшедшим. Фоггу очень хочется, чтобы к нему относились серьезно, и он заключает необычное пари с лордом Келвином, главой Королевской академии наук: он берется совершить путешествие вокруг земного шара не более чем за 80 дней.
Вместе со своим лакеем Паспарту и жаждущей острых ощущений французской художницей Моник Фогг пускается в безумную, захватывающую кругосветную гонку по суше, морю и воздуху. Во время головокружительного путешествия наши герои попадают в самые экзотические уголки планеты. В пути их ждут многочисленные приключения и препятствия…
Рейтинг
imdb.com: 5.60 (29 589)
MPAA: PG - Рекомендуется присутствие родителей
Качество видео: BDRip - Исходник BD Remux
Формат видео: m4v
Видео кодек: H.264
Аудио кодек: AAC
Видео: 1280х544 (2.35:1), 23,976 fps, H.264 3300 kbps avg, 0.198 bit/pixel
Аудио #1: Russian, 48,0 kHz, AAC LC, 2 ch, 177 kbps avg | DUB
Аудио #2: Russian, 48,0 kHz, AAC LC, 2 ch, 182 kbps avg | DVO
Аудио #3: English, 48,0 kHz, AAC LC, 2 ch, 154 kbps avg | Original
MediaInfo
Код:
Код:
General
Complete name                            : D:\iPad.2\Around the World in 80 Days\Around.the.World.in.80.Days.2004.BDRip.m4v
Format                                   : MPEG-4
Codec ID                                 : M4V
File size                                : 3.21 GiB
Duration                                 : 2h 0mn
Overall bit rate mode                    : Variable
Overall bit rate                         : 3 829 Kbps
Movie name                               : Вокруг света за 80 дней
Performer                                : Фрэнк Корачи
Genre                                    : боевик, мелодрама, комедия
Recorded date                            : UTC 2004-06-13 07:00:00
Encoded date                             : UTC 2011-12-22 03:28:14
Tagged date                              : UTC 2011-12-23 03:34:59
Writing application                      : MkvToMp4 [www.mkvtomp4.ru] version 0.218Test3
Cover                                    : Yes
desc                                     : Эксцентричный лондонский изобретатель Филеас Фогг раскрыл тайны полетов, электричества и многие другие, но общество не принимает его, считая сумасшедшим. Фоггу очень хочется, чтобы к нему относились серьезно, и он заключает необычное пари с лордом Ке
ldes                                     : Эксцентричный лондонский изобретатель Филеас Фогг раскрыл тайны полетов, электричества и многие другие, но общество не принимает его, считая сумасшедшим. Фоггу очень хочется, чтобы к нему относились серьезно, и он заключает необычное пари с лордом Келвином, главой Королевской академии наук: он берется совершить путешествие вокруг земного шара не более чем за 80 дней. Вместе со своим лакеем Паспарту и жаждущей острых ощущений французской художницей Моник Фогг пускается в безумную, захватывающую кругосветную гонку по суше, морю и воздуху. Во время головокружительного путешествия наши герои попадают в самые экзотические уголки планеты. В пути их ждут многочисленные приключения и препятствия…
hdvd                                     : 1
stik                                     : 9
cnID                                     : 285530569
xid                                      : RG-Apple:vendor_id:-
iTunEXTC                                 : mpaa|PG|200|
iTunMOVI                                 : <?xml version="1.0" encoding="UTF-8"?> / <!DOCTYPE plist PUBLIC "-/Apple/DTD PLIST 1.0/EN" "http:/www.apple.com/DTDs/PropertyList-1.0.dtd"> / <plist version="1.0"> /  <dict> /   <key>cast</key> /   <array> /    <dict> /     <key>name</key> /     <string>Джеки Чан</string> /    </dict> /    <dict> /     <key>name</key> /     <string>Стив Кугэн</string> /    </dict> /    <dict> /     <key>name</key> /     <string>Роберт Файф</string> /    </dict> /    <dict> /     <key>name</key> /     <string>Джим Броудбент</string> /    </dict> /    <dict> /     <key>name</key> /     <string>Иэн МакНис</string> /    </dict> /    <dict> /     <key>name</key> /     <string>Дэвид Райалл</string> /    </dict> /    <dict> /     <key>name</key> /     <string>Роджер Хэммонд</string> /    </dict> /    <dict> /     <key>name</key> /     <string>Адам Годли</string> /    </dict> /    <dict> /     <key>name</key> /     <string>Карен Мок</string> /    </dict> /    <dict> /     <key>name</key> /     <string>Ховард Купер</string> /    </dict> /   </array> /   <key>directors</key> /   <array> /    <dict> /     <key>name</key> /     <string>Фрэнк Корачи</string> /    </dict> /   </array> /   <key>producers</key> /   <array> /    <dict> /     <key>name</key> /     <string>Филлис Алиа</string> /    </dict> /    <dict> /     <key>name</key> /     <string>Алекс Люн</string> /    </dict> /    <dict> /     <key>name</key> /     <string>Хэл Либерман</string> /    </dict> /   </array> /   <key>screenwriters</key> /   <array> /    <dict> /     <key>name</key> /     <string>Дэвид Н. Титчер</string> /    </dict> /    <dict> /     <key>name</key> /     <string>Дэвид Бенулло</string> /    </dict> /    <dict> /     <key>name</key> /     <string>Дэвид Эндрю Голдстин</string> /    </dict> /   </array> /  </dict> / </plist>
Video
ID                                       : 1
Format                                   : AVC
Format/Info                              : Advanced Video Codec
Format profile                           : [email protected]
Format settings, CABAC                   : Yes
Format settings, ReFrames                : 10 frames
Codec ID                                 : avc1
Codec ID/Info                            : Advanced Video Coding
Duration                                 : 2h 0mn
Bit rate                                 : 3 300 Kbps
Maximum bit rate                         : 10.4 Mbps
Width                                    : 1 280 pixels
Height                                   : 544 pixels
Display aspect ratio                     : 2.35:1
Frame rate mode                          : Variable
Frame rate                               : 23.976 fps
Minimum frame rate                       : 5.994 fps
Maximum frame rate                       : 24.038 fps
Color space                              : YUV
Chroma subsampling                       : 4:2:0
Bit depth                                : 8 bits
Scan type                                : Progressive
Bits/(Pixel*Frame)                       : 0.198
Stream size                              : 2.77 GiB (86%)
Writing library                          : x264 core 112
Encoding settings                        : cabac=1 / ref=10 / deblock=1:0:0 / analyse=0x3:0x113 / me=umh / subme=9 / psy=1 / psy_rd=1.00:0.00 / mixed_ref=1 / me_range=32 / chroma_me=1 / trellis=1 / 8x8dct=1 / cqm=0 / deadzone=21,11 / fast_pskip=1 / chroma_qp_offset=-2 / threads=12 / sliced_threads=0 / nr=0 / decimate=1 / interlaced=0 / constrained_intra=0 / bframes=6 / b_pyramid=2 / b_adapt=1 / b_bias=0 / direct=1 / weightb=1 / open_gop=0 / weightp=2 / keyint=240 / keyint_min=23 / scenecut=40 / intra_refresh=0 / rc_lookahead=40 / rc=2pass / mbtree=1 / bitrate=3300 / ratetol=1.0 / qcomp=0.60 / qpmin=3 / qpmax=51 / qpstep=4 / cplxblur=20.0 / qblur=0.5 / ip_ratio=1.40 / aq=1:1.00
Language                                 : English
Encoded date                             : UTC 2011-12-22 03:28:14
Tagged date                              : UTC 2011-12-22 03:30:11
Color primaries                          : BT.709-5, BT.1361, IEC 61966-2-4, SMPTE RP177
Transfer characteristics                 : BT.709-5, BT.1361
Matrix coefficients                      : BT.709-5, BT.1361, IEC 61966-2-4 709, SMPTE RP177
Audio #1
ID                                       : 2
Format                                   : AAC
Format/Info                              : Advanced Audio Codec
Format profile                           : LC
Codec ID                                 : 40
Duration                                 : 1h 59mn
Bit rate mode                            : Variable
Bit rate                                 : 177 Kbps
Maximum bit rate                         : 272 Kbps
Channel(s)                               : 2 channels
Channel positions                        : Front: L R
Sampling rate                            : 48.0 KHz
Compression mode                         : Lossy
Stream size                              : 152 MiB (5%)
Title                                    : DUB
Language                                 : Russian
Encoded date                             : UTC 2011-12-22 03:29:21
Tagged date                              : UTC 2011-12-22 03:30:11
Audio #2
ID                                       : 3
Format                                   : AAC
Format/Info                              : Advanced Audio Codec
Format profile                           : LC
Codec ID                                 : 40
Duration                                 : 2h 0mn
Bit rate mode                            : Variable
Bit rate                                 : 182 Kbps
Maximum bit rate                         : 228 Kbps
Channel(s)                               : 2 channels
Channel positions                        : Front: L R
Sampling rate                            : 48.0 KHz
Compression mode                         : Lossy
Stream size                              : 157 MiB (5%)
Title                                    : DVO
Language                                 : Russian
Encoded date                             : UTC 2011-12-22 03:29:47
Tagged date                              : UTC 2011-12-22 03:30:11
Audio #3
ID                                       : 4
Format                                   : AAC
Format/Info                              : Advanced Audio Codec
Format profile                           : LC
Codec ID                                 : 40
Duration                                 : 2h 0mn
Bit rate mode                            : Variable
Bit rate                                 : 154 Kbps
Maximum bit rate                         : 218 Kbps
Channel(s)                               : 2 channels
Channel positions                        : Front: L R
Sampling rate                            : 48.0 KHz
Compression mode                         : Lossy
Stream size                              : 132 MiB (4%)
Title                                    : Original
Language                                 : English
Encoded date                             : UTC 2011-12-22 03:29:59
Tagged date                              : UTC 2011-12-22 03:30:11
Text #1
ID                                       : 5
Format                                   : Timed text
Muxing mode                              : sbtl
Codec ID                                 : tx3g
Duration                                 : 1h 53mn
Bit rate mode                            : Variable
Bit rate                                 : 91 bps
Stream size                              : 75.7 KiB (0%)
Language                                 : Russian
Encoded date                             : UTC 2011-12-22 03:30:11
Tagged date                              : UTC 2011-12-22 03:30:11
Text #2
ID                                       : 6
Format                                   : Timed text
Muxing mode                              : sbtl
Codec ID                                 : tx3g
Duration                                 : 1h 59mn
Bit rate mode                            : Variable
Bit rate                                 : 63 bps
Stream size                              : 55.7 KiB (0%)
Language                                 : English
Encoded date                             : UTC 2011-12-22 03:30:11
Tagged date                              : UTC 2011-12-22 03:30:11

x264 log
Код:
Код:
x264 [info]: frame I:2891  Avg QP:17.63  size: 95899  PSNR Mean Y:46.22 U:47.06 V:49.15 Avg:46.70 Global:46.38
x264 [info]: frame P:80437 Avg QP:20.60  size: 25387  PSNR Mean Y:43.86 U:45.29 V:48.06 Avg:44.51 Global:44.11
x264 [info]: frame B:89460 Avg QP:22.78  size:  7291  PSNR Mean Y:43.40 U:45.54 V:48.41 Avg:44.15 Global:43.58
x264 [info]: consecutive B-frames: 14.6% 42.5% 16.1% 17.7%  6.3%  2.4%  0.5%
x264 [info]: mb I  I16..4:  8.2% 73.0% 18.8%
x264 [info]: mb P  I16..4:  0.7%  6.1%  1.4%  P16..4: 44.4% 24.3% 14.9%  0.0%  0.0%    skip: 8.2%
x264 [info]: mb B  I16..4:  0.0%  0.5%  0.1%  B16..8: 44.5%  7.4%  2.0%  direct: 2.8%  skip:42.7%  L0:43.3% L1:49.0% BI: 7.7%
x264 [info]: 8x8 transform intra:73.9% inter:71.3%
x264 [info]: coded y,uvDC,uvAC intra: 89.1% 91.6% 72.0% inter: 28.7% 38.2% 10.3%
x264 [info]: i16 v,h,dc,p: 28% 22%  6% 44%
x264 [info]: i8 v,h,dc,ddl,ddr,vr,hd,vl,hu:  8%  7%  2% 11% 17% 16% 16% 12% 12%
x264 [info]: i4 v,h,dc,ddl,ddr,vr,hd,vl,hu:  8%  7%  2%  9% 16% 16% 16% 12% 14%
x264 [info]: i8c dc,h,v,p: 44% 19% 17% 21%
x264 [info]: Weighted P-Frames: Y:1.8% UV:1.2%
x264 [info]: ref P L0: 53.5% 13.2% 14.0%  5.4%  4.1%  2.9%  2.6%  1.3%  1.3%  1.1%  0.4%  0.0%
x264 [info]: ref B L0: 71.2% 12.6%  6.0%  3.3%  2.4%  2.0%  1.5%  0.8%  0.2%
x264 [info]: ref B L1: 94.4%  5.6%
x264 [info]: SSIM Mean Y:0.9756430 (16.134db)
x264 [info]: PSNR Mean Y:43.658 U:45.449 V:48.258 Avg:44.358 Global:43.855 kb/s:3298.53

Скриншоты

Скриншоты с iPad




Вернуться к началу
 Профиль Отправить личное сообщение  
 
   Похожие торренты   Автор   Торрент   Размер 
В этой теме нет новых непрочитанных сообщений. Вокруг света за 80 дней / Around the World in 80 Days [Приключения, комедия, мелодрама, семейный, 1956] WEBRip 1080р, Mvo

salma3

10 | 27

15.87 ГБ

В этой теме нет новых непрочитанных сообщений. Конец света / End of Days [Ужасы, Боевик, Триллер, 1999] BDRip 720p, Dub+Mvo+Avo+Sub

salma3

91 | 42

6.58 ГБ

В этой теме нет новых непрочитанных сообщений. Нелепая шестёрка / The Ridiculous 6 (Фрэнк Корачи) [комедия, вестерн, 2015] WEB-DL 720p [NewStudio]

Dracon

1618 | 127

3.64 ГБ

В этой теме нет новых непрочитанных сообщений. 400 дней / 400 Days [фантастика, триллер, детектив, 2015] BDRip 720p, Dvo [iPad]

salma3

2 | 1

1.66 ГБ

В этой теме нет новых непрочитанных сообщений. 400 дней / 400 Days [фантастика, триллер, детектив, 2015] BDRip 720p, Dvo [iPad]

salma3

45 | 21

1.66 ГБ

В этой теме нет новых непрочитанных сообщений. Нелепая шестёрка / The Ridiculous 6 (Фрэнк Корачи) [комедия, вестерн, 2015] WEB-DL 1080p [NewStudio]

Dracon

58 | 15

5.3 ГБ

В этой теме нет новых непрочитанных сообщений. Нелепая шестёрка / The Ridiculous 6 (Фрэнк Корачи) [комедия, вестерн, 2015] WEB-DLRip [NewStudio]

Dracon

397 | 11

1.73 ГБ


Начать новую тему Ответить на тему  [ 1 сообщение ] 




Для Мосгорсуда, Роскомнадзора и рекламодателей:: mosgorsud-torrent[собачка]yandex.ru
cron