Торрент файл
скачать торрент магнет ссылка Добавлен: 12 янв 2013, 23:49
Размер: 2.43 ГБ
Сидеров: 4
Личеров: 3
Автор

СообщениеДобавлено: 12 янв 2013, 23:49 

Не в сети
Супермодератор
Аватара пользователя
Дата регистрации:
11 апр 2010, 18:10
Спасибо: 5996 / 7
Сообщения: 56684
id="p-25224744-1">
Лжец, лжец / Liar Liar«Верьте мне.»


Страна: США
Жанр: фэнтези, комедия
Год выпуска: 1997

Перевод #1: Профессиональный (многоголосый, закадровый)
Перевод #2: Авторский (одноголосый, закадровый)
Оригинальная аудиодорожка: Английский
Cубтитры: Русские, Английские
Режиссер: Том Шэдьяк / Tom Shadyac

В ролях: Джим Керри (Fletcher Reede,), Мора Тирни (Audrey Reede), Джастин Купер (Max Reede), Кэри Элвис (Jerry), Энн Хейни (Greta), Дженнифер Тилли (Samantha Cole), Аманда Донохью (Miranda), Джейсон Бернард (Judge Marshall Stevens), Свузи Кёрц (Dana Appleton), Митч Райан (Mr. Allan), Кристофер Майер (Kenneth Falk), Эрик Пиерпоинт (Richard Cole)

Описание: Флетчер Рид - блестящий адвокат и неисправимый лжец. Он по привычке врет жене Одри, сыну Максу и учит клиентов подстраивать правду под свои нужды, перекраивать истину ради своей выгоды. Жена бросает Флетчера из-за его вредной привычки лгать, а сын Макс в свой день рождения, задувая свечи на торте, загадывает только одно желание: «Хочу, чтоб мой любимый папочка перестал постоянно врать».
Желание сбывается, и неожиданно для Флетчера Рида язык, который всегда был его рабочим инструментом, превращается в его главного врага. Флетчер начинает говорить обидную правду своему начальнику и клиентам. Эта правдивость может стоить адвокату работы! Но самое страшное ждет правдивого поневоле Флетчера в зале суда, когда будет слушаться дело о разводе его клиента. Без вранья он не сможет выиграть! Да, этот день своей жизни Флетчер Рид не забудет никогда&
Рейтинг
imdb.com: 6.70 (92 883)
MPAA: PG-13 - Детям до 13 лет просмотр не желателен
Качество видео: BDRip - Исходник BD Remux
Формат видео: m4v
Видео кодек: H.264
Аудио кодек: AAC
Видео: 1024х560 (16:9), 23,976 fps, H.264 3500 kbps avg, 0.255 bit/pixel
Аудио #1: Russian, 48,0 kHz, AAC LC, 2 ch, 192 kbps avg | MVO
Аудио #2: Russian, 48,0 kHz, AAC LC, 2 ch, 139 kbps avg | АVO
Аудио #3: English, 48,0 kHz, AAC LC, 2 ch, 170 kbps avg | Original
MediaInfo
Код:
Код:
General
Complete name                            : D:\NEW\Liar Liar\Liar.Liar.1997.BDRip.m4v
Format                                   : MPEG-4
Codec ID                                 : M4V
File size                                : 2.43 GiB
Duration                                 : 1h 26mn
Overall bit rate mode                    : Variable
Overall bit rate                         : 4 017 Kbps
Movie name                               : Лжец, лжец
Performer                                : Том Шэдьяк
Genre                                    : фэнтези, комедия
Recorded date                            : UTC 1997-03-21 07:00:00
Encoded date                             : UTC 2012-01-04 17:26:05
Tagged date                              : UTC 2012-01-05 17:30:25
Writing application                      : MkvToMp4 [www.mkvtomp4.ru] version 0.218Test3
Cover                                    : Yes
desc                                     : Флетчер Рид — блестящий адвокат и неисправимый лжец. Он по привычке врет жене Одри, сыну Максу и учит клиентов подстраивать правду под свои нужды, перекраивать истину ради своей выгоды.
ldes                                     : Флетчер Рид — блестящий адвокат и неисправимый лжец. Он по привычке врет жене Одри, сыну Максу и учит клиентов подстраивать правду под свои нужды, перекраивать истину ради своей выгоды. Жена бросает Флетчера из-за его вредной привычки лгать, а сын Макс в свой день рождения, задувая свечи на торте, загадывает только одно желание: «Хочу, чтоб мой любимый папочка перестал постоянно врать».
hdvd                                     : 1
stik                                     : 9
cnID                                     : 282131564
xid                                      : iPad:vendor_id:1997-1721
iTunEXTC                                 : mpaa|PG-13|300|
iTunMOVI                                 : <?xml version="1.0" encoding="UTF-8"?> / <!DOCTYPE plist PUBLIC "-/Apple/DTD PLIST 1.0/EN" "http:/www.apple.com/DTDs/PropertyList-1.0.dtd"> / <plist version="1.0"> /  <dict> /   <key>cast</key> /   <array> /    <dict> /     <key>name</key> /     <string>Джим Керри</string> /    </dict> /    <dict> /     <key>name</key> /     <string>Мойра Тирни</string> /    </dict> /    <dict> /     <key>name</key> /     <string>Джастин Купер</string> /    </dict> /    <dict> /     <key>name</key> /     <string>Кэри Элвис</string> /    </dict> /    <dict> /     <key>name</key> /     <string>Энн Хейни</string> /    </dict> /    <dict> /     <key>name</key> /     <string>Дженнифер Тилли</string> /    </dict> /    <dict> /     <key>name</key> /     <string>Аманда Донохью</string> /    </dict> /    <dict> /     <key>name</key> /     <string>Джейсон Бернард</string> /    </dict> /    <dict> /     <key>name</key> /     <string>Свузи Кертц</string> /    </dict> /    <dict> /     <key>name</key> /     <string>Митч Райан</string> /    </dict> /    <dict> /     <key>name</key> /     <string>Кристофер Майер</string> /    </dict> /    <dict> /     <key>name</key> /     <string>Эрик Пиерпоинт</string> /    </dict> /   </array> /   <key>directors</key> /   <array> /    <dict> /     <key>name</key> /     <string>Том Шэдьяк</string> /    </dict> /   </array> /   <key>producers</key> /   <array> /    <dict> /     <key>name</key> /     <string>Майкл Бостик</string> /    </dict> /    <dict> /     <key>name</key> /     <string>Джеймс Д. Брубэйкер</string> /    </dict> /    <dict> /     <key>name</key> /     <string>Брайан Грейзер</string> /    </dict> /   </array> /   <key>screenwriters</key> /   <array> /    <dict> /     <key>name</key> /     <string>Пол Гюэ</string> /    </dict> /    <dict> /     <key>name</key> /     <string>Стефен Мазур</string> /    </dict> /   </array> /  </dict> / </plist>
Video
ID                                       : 1
Format                                   : AVC
Format/Info                              : Advanced Video Codec
Format profile                           : [email protected]
Format settings, CABAC                   : Yes
Format settings, ReFrames                : 9 frames
Codec ID                                 : avc1
Codec ID/Info                            : Advanced Video Coding
Duration                                 : 1h 26mn
Bit rate                                 : 3 500 Kbps
Maximum bit rate                         : 9 023 Kbps
Width                                    : 1 024 pixels
Height                                   : 560 pixels
Display aspect ratio                     : 16:9
Frame rate mode                          : Variable
Frame rate                               : 23.976 fps
Minimum frame rate                       : 23.969 fps
Maximum frame rate                       : 24.038 fps
Color space                              : YUV
Chroma subsampling                       : 4:2:0
Bit depth                                : 8 bits
Scan type                                : Progressive
Bits/(Pixel*Frame)                       : 0.255
Stream size                              : 2.11 GiB (87%)
Writing library                          : x264 core 112
Encoding settings                        : cabac=1 / ref=9 / deblock=1:0:0 / analyse=0x3:0x113 / me=umh / subme=9 / psy=1 / psy_rd=1.00:0.00 / mixed_ref=1 / me_range=24 / chroma_me=1 / trellis=1 / 8x8dct=1 / cqm=0 / deadzone=21,11 / fast_pskip=1 / chroma_qp_offset=-2 / threads=12 / sliced_threads=0 / nr=0 / decimate=1 / interlaced=0 / constrained_intra=0 / bframes=6 / b_pyramid=2 / b_adapt=1 / b_bias=0 / direct=1 / weightb=1 / open_gop=0 / weightp=2 / keyint=240 / keyint_min=23 / scenecut=40 / intra_refresh=0 / rc_lookahead=40 / rc=2pass / mbtree=1 / bitrate=3500 / ratetol=1.0 / qcomp=0.60 / qpmin=3 / qpmax=51 / qpstep=4 / cplxblur=20.0 / qblur=0.5 / ip_ratio=1.40 / aq=1:1.00
Language                                 : English
Encoded date                             : UTC 2012-01-04 17:26:05
Tagged date                              : UTC 2012-01-04 17:27:33
Color primaries                          : BT.709-5, BT.1361, IEC 61966-2-4, SMPTE RP177
Transfer characteristics                 : BT.709-5, BT.1361
Matrix coefficients                      : BT.709-5, BT.1361, IEC 61966-2-4 709, SMPTE RP177
Audio #1
ID                                       : 2
Format                                   : AAC
Format/Info                              : Advanced Audio Codec
Format profile                           : LC
Codec ID                                 : 40
Duration                                 : 1h 26mn
Bit rate mode                            : Variable
Bit rate                                 : 192 Kbps
Maximum bit rate                         : 228 Kbps
Channel(s)                               : 2 channels
Channel positions                        : Front: L R
Sampling rate                            : 48.0 KHz
Compression mode                         : Lossy
Stream size                              : 120 MiB (5%)
Title                                    : MVO
Language                                 : Russian
Encoded date                             : UTC 2012-01-04 17:26:51
Tagged date                              : UTC 2012-01-04 17:27:33
Audio #2
ID                                       : 3
Format                                   : AAC
Format/Info                              : Advanced Audio Codec
Format profile                           : LC
Codec ID                                 : 40
Duration                                 : 1h 26mn
Bit rate mode                            : Variable
Bit rate                                 : 139 Kbps
Maximum bit rate                         : 217 Kbps
Channel(s)                               : 2 channels
Channel positions                        : Front: L R
Sampling rate                            : 48.0 KHz
Compression mode                         : Lossy
Stream size                              : 85.6 MiB (3%)
Title                                    : AVO (Zhivov)
Language                                 : Russian
Encoded date                             : UTC 2012-01-04 17:27:07
Tagged date                              : UTC 2012-01-04 17:27:33
Audio #3
ID                                       : 4
Format                                   : AAC
Format/Info                              : Advanced Audio Codec
Format profile                           : LC
Codec ID                                 : 40
Duration                                 : 1h 26mn
Bit rate mode                            : Variable
Bit rate                                 : 170 Kbps
Maximum bit rate                         : 241 Kbps
Channel(s)                               : 2 channels
Channel positions                        : Front: L R
Sampling rate                            : 48.0 KHz
Compression mode                         : Lossy
Stream size                              : 105 MiB (4%)
Title                                    : Original
Language                                 : English
Encoded date                             : UTC 2012-01-04 17:27:20
Tagged date                              : UTC 2012-01-04 17:27:33
Text #1
ID                                       : 5
Format                                   : Timed text
Muxing mode                              : sbtl
Codec ID                                 : tx3g
Duration                                 : 1h 23mn
Bit rate mode                            : Variable
Bit rate                                 : 118 bps
Stream size                              : 71.8 KiB (0%)
Language                                 : Russian
Encoded date                             : UTC 2012-01-04 17:27:33
Tagged date                              : UTC 2012-01-04 17:27:33
Text #2
ID                                       : 6
Format                                   : Timed text
Muxing mode                              : sbtl
Codec ID                                 : tx3g
Duration                                 : 1h 23mn
Bit rate mode                            : Variable
Bit rate                                 : 81 bps
Stream size                              : 49.1 KiB (0%)
Language                                 : English
Encoded date                             : UTC 2012-01-04 17:27:33
Tagged date                              : UTC 2012-01-04 17:27:33

x264 log
Код:
Код:
x264 [info]: frame I:1430  Avg QP:18.24  size: 87527  PSNR Mean Y:45.14 U:50.38 V:51.86 Avg:46.30 Global:46.04
x264 [info]: frame P:59220 Avg QP:21.05  size: 26893  PSNR Mean Y:42.43 U:49.25 V:50.47 Avg:43.69 Global:43.40
x264 [info]: frame B:63782 Avg QP:23.21  size:  8644  PSNR Mean Y:41.90 U:50.99 V:52.13 Avg:43.23 Global:42.60
x264 [info]: consecutive B-frames:  9.4% 58.0% 21.4%  8.9%  0.8%  0.3%  1.2%
x264 [info]: mb I  I16..4:  5.8% 79.1% 15.1%
x264 [info]: mb P  I16..4:  0.4%  7.4%  1.1%  P16..4: 39.5% 28.3% 16.5%  0.0%  0.0%    skip: 6.8%
x264 [info]: mb B  I16..4:  0.0%  1.2%  0.1%  B16..8: 46.4%  9.9%  2.8%  direct: 3.6%  skip:35.8%  L0:40.1% L1:48.5% BI:11.4%
x264 [info]: 8x8 transform intra:83.4% inter:64.6%
x264 [info]: coded y,uvDC,uvAC intra: 95.3% 68.7% 29.1% inter: 37.5% 24.5% 1.0%
x264 [info]: i16 v,h,dc,p: 43% 21%  9% 27%
x264 [info]: i8 v,h,dc,ddl,ddr,vr,hd,vl,hu:  8%  6%  3% 12% 17% 16% 14% 13% 11%
x264 [info]: i4 v,h,dc,ddl,ddr,vr,hd,vl,hu: 10%  7%  2%  9% 16% 17% 14% 13% 12%
x264 [info]: i8c dc,h,v,p: 36% 27% 22% 15%
x264 [info]: Weighted P-Frames: Y:2.7% UV:1.2%
x264 [info]: ref P L0: 51.7% 14.9% 14.2%  5.4%  4.3%  3.1%  2.8%  1.5%  1.5%  0.5%  0.0%
x264 [info]: ref B L0: 74.8% 11.7%  5.4%  2.8%  2.0%  1.7%  1.4%  0.2%
x264 [info]: ref B L1: 95.7%  4.3%
x264 [info]: SSIM Mean Y:0.9670395 (14.820db)
x264 [info]: PSNR Mean Y:42.188 U:50.154 V:51.335 Avg:43.487 Global:42.992 kb/s:3497.74

Скриншоты

Скриншоты с iPad




Вернуться к началу
 Профиль Отправить личное сообщение  
 
   Похожие торренты   Автор   Торрент   Размер 
В этой теме нет новых непрочитанных сообщений. Лжец / Liar [S01] [драма, триллер, 2017] WEBRip 720p, Mvo [NewStation]

salma3

5 | 1

7.71 ГБ

В этой теме нет новых непрочитанных сообщений. Лжец / Liar [01x01-03 из 06] [драма, триллер, 2017] WEBRip, Mvo [NewStation]

salma3

0 | 0

1.44 ГБ

В этой теме нет новых непрочитанных сообщений. Яков лжец / Jakob the Liar [драма, военный, 1999] WEBRip 1080p, Mvo

salma3

13 | 4

11.63 ГБ

В этой теме нет новых непрочитанных сообщений. Ненастоящий вампир / Liar, Liar, Vampire (Винс Марселло) [комедия, семейный, 2015] HDTVRip, dvo

Dracon

156 | 20

1.28 ГБ

В этой теме нет новых непрочитанных сообщений. Большой толстый лгун / Big Fat Liar [комедия, приключения, семейный, 2002] BDRip 720p, Mvo+Dvo+Sub

salma3

13 | 8

6.07 ГБ

В этой теме нет новых непрочитанных сообщений. Большой толстый лгун / Big Fat Liar [Комедия, приключения, семейный, 2002] BDRip 1080p, Mvo

salma3

13 | 4

12.01 ГБ

В этой теме нет новых непрочитанных сообщений. Лжец, Великий и Ужасный / The Wizard of Lies [Драма, криминал, биография, 2017] BDRip, Mvo

salma3

120 | 3

2.12 ГБ


Начать новую тему Ответить на тему  [ 1 сообщение ] 




Для Мосгорсуда, Роскомнадзора и рекламодателей:: mosgorsud-torrent[собачка]yandex.ru
cron