Торрент файл
скачать торрент магнет ссылка Добавлен: 12 янв 2013, 23:49
Размер: 2.72 ГБ
Сидеров: 6
Личеров: 5
Автор

СообщениеДобавлено: 12 янв 2013, 23:49 

Не в сети
Супермодератор
Аватара пользователя
Дата регистрации:
11 апр 2010, 18:10
Спасибо: 5995 / 7
Сообщения: 56685
id="p-25224744-1">Часы / The Hours



Страна: США, Великобритания
Жанр: Драма
Год выпуска: 2002
Продолжительность: 01:50:05
Перевод: Профессиональный (полное дублирование)
Режиссер: Стивен Долдри / Stephen Daldry
В ролях: Николь Кидман / (Virginia Woolf), Джулианна Мур / (Laura Brown), Мэрил Стрип / (Clarissa Vaughan ), Стивен Диллэйн / (Leonard Woolf ), Миранда Ричардсон / (Vanessa Bell), Джордж Лофтус / (Quentin Bell), Чарли Рэмм / (Julian Bell ), Софи Уайберд / (Angelica Bell), Линда Бэссет / (Nelly Boxall), Линдси Маршал / (Lottie Hope)
Описание: В фильме описывается жизнь и рабочие будни Вирджинии Вульф через рассказ истории трех женщин: Вульф, которая показана в период написания ею «Миссис Дэллоувэй», когда ее терзали мысли о самоубийстве; Лары Браун, молодой жены и матери, которая задыхается в рамках своей опрятной жизни среди Лос-Анджелеса 1951 года; и Клариссы Вон, которая устраивает вечеринку в Нью-Йорке наших дней для своего близкого друга Ричарда, умирающего от СПИДа.
Качество: BDRip
Исходник: Сторонний ресурс
Формат: m4v
Видео кодек: H.264
Аудио кодек: AAC
Видео: 1024x554, 3210 Kbps, 23,976 fps
Аудио Rus: 48 kHz, AAC, 2ch, 163 kbps
Аудио Eng: 48 kHz, AAC, 2ch, 160 kbps
MediaInfo
Код:
Код:
Полное имя : E:\The Hours.m4v
Формат : MPEG-4
Идентификатор кодека : M4V
Размер файла : 2,72 Гбайт
Продолжительность : 1 ч. 50 м.
Общий поток : 3535 Кбит/сек
Название фильма : Часы
Исполнитель : Стивен Долдри
Жанр : Drama
Дата записи : UTC 2002-12-18 07:00:00
Дата кодирования : UTC 2012-02-05 10:00:49
Дата пометки : UTC 2012-02-13 06:56:02
Обложка : Yes
desc : В фильме описывается жизнь и рабочие будни Вирджинии Вульф через рассказ истории трех женщин: Вульф, которая показана в период написания ею «Миссис Дэллоувэй», когда ее терзали мысли о самоубийстве...
ldes : В фильме описывается жизнь и рабочие будни Вирджинии Вульф через рассказ истории трех женщин: Вульф, которая показана в период написания ею «Миссис Дэллоувэй», когда ее терзали мысли о самоубийстве; Лары Браун, молодой жены и матери, которая задыхается в рамках своей опрятной жизни среди Лос-Анджелеса 1951 года; и Клариссы Вон, которая устраивает вечеринку в Нью-Йорке наших дней для своего близкого друга Ричарда, умирающего от СПИДа.
hdvd : 1
stik : 9
rtng : 0
cnID : 702
xid : iPad:vendor_id:2002-702
iTunEXTC : mpaa|PG-13|300|
iTunMOVI : / / / / cast / / / name / Николь Кидман / / / name / Джулианна Мур / / / name / Мэрил Стрип / / / name / Стивен Диллэйн / / / name / Миранда Ричардсон / / / name / Джордж Лофтус / / / name / Чарли Рэмм / / / name / Софи Уайберд / / / name / Линдси Маршал. / / / directors / / / name / Стивен Долдри / / / producers / / / name / Роберт Фокс / / / name / Скотт Рудин / / / name / Майкл Элден / / / screenwriters / / / name / Дэвид Хэа / / / name / Майкл Каннингем / / / /
Видео
Идентификатор : 1
Формат : AVC
Формат/Информация : Advanced Video Codec
Профиль формата : [email protected]
Параметр CABAC формата : Да
Параметр ReFrames формата : 8 кадры
Идентификатор кодека : avc1
Идентификатор кодека/Информация : Advanced Video Coding
Продолжительность : 1 ч. 50 м.
Вид битрейта : Переменный
Битрейт : 3210 Кбит/сек
Максимальный битрейт : 14,5 Мбит/сек
Ширина : 1024 пикс.
Высота : 554 пикс.
Соотношение сторон : 16:9
Режим частоты кадров : Постоянный
Частота кадров : 25,000 кадр/сек
Цветовое пространство : YUV
Подвыборка цветности : 4:2:0
Битовая глубина : 8 бит
Тип развёртки : Прогрессивная
Бит/(Пиксели*Кадры) : 0.226
Размер потока : 2,46 Гбайт (91%)
Библиотека кодирования : x264 core 115 r1995 c1e60b9
Настройки программы : cabac=1 / ref=8 / deblock=1:-2:-2 / analyse=0x3:0x133 / me=umh / subme=10 / psy=1 / psy_rd=0.90:0.00 / mixed_ref=1 / me_range=48 / chroma_me=1 / trellis=2 / 8x8dct=1 / cqm=0 / deadzone=21,11 / fast_pskip=0 / chroma_qp_offset=-2 / threads=6 / sliced_threads=0 / nr=0 / decimate=1 / interlaced=0 / bluray_compat=0 / constrained_intra=0 / bframes=6 / b_pyramid=2 / b_adapt=2 / b_bias=0 / direct=3 / weightb=1 / open_gop=0 / weightp=2 / keyint=250 / keyint_min=23 / scenecut=40 / intra_refresh=0 / rc_lookahead=40 / rc=2pass / mbtree=1 / bitrate=3210 / ratetol=1.0 / qcomp=0.60 / qpmin=10 / qpmax=51 / qpstep=4 / cplxblur=20.0 / qblur=0.5 / ip_ratio=1.40 / aq=2:1.00
Дата кодирования : UTC 2012-02-05 10:00:49
Дата пометки : UTC 2012-02-05 10:03:19
Аудио #1
Идентификатор : 2
Формат : AAC
Формат/Информация : Advanced Audio Codec
Профиль формата : LC
Идентификатор кодека : 40
Продолжительность : 1 ч. 50 м.
Вид битрейта : Переменный
Битрейт : 163 Кбит/сек
Максимальный битрейт : 234 Кбит/сек
Канал(ы) : 2 канала(ов)
Расположение каналов : Front: L R
Частота : 48,0 КГц
Метод сжатия : С потерями
Размер потока : 128 Мбайт (5%)
Язык : Russian
Дата кодирования : UTC 2012-02-05 10:03:05
Дата пометки : UTC 2012-02-05 10:03:19
Аудио #2
Идентификатор : 3
Формат : AAC
Формат/Информация : Advanced Audio Codec
Профиль формата : LC
Идентификатор кодека : 40
Продолжительность : 1 ч. 50 м.
Вид битрейта : Переменный
Битрейт : 160 Кбит/сек
Максимальный битрейт : 244 Кбит/сек
Канал(ы) : 2 канала(ов)
Расположение каналов : Front: L R
Частота : 48,0 КГц
Метод сжатия : С потерями
Размер потока : 126 Мбайт (5%)
Язык : English
Дата кодирования : UTC 2012-02-05 10:03:13
Дата пометки : UTC 2012-02-05 10:03:19
Текст
Идентификатор : 4
Формат : Apple text
Идентификатор кодека : text
Продолжительность : 1 ч. 50 м.
Вид битрейта : Постоянный
Битрейт : 0
Размер потока : 325 байт (0%)
Дата кодирования : UTC 2012-02-06 10:05:11
Дата пометки : UTC 2012-02-06 10:05:11

Скриншоты



Вернуться к началу
 Профиль Отправить личное сообщение  
 
   Похожие торренты   Автор   Торрент   Размер 
В этой теме нет новых непрочитанных сообщений. Специалист по выживанию / The Survivalist (Стивен Финглтон / Stephen Fingleton) [2015г., Великобритания, фантастика, триллер, драма, WEB-DL 720p] dvo

Alfredovich

596 | 18

3.26 ГБ

В этой теме нет новых непрочитанных сообщений. Часы отчаяния / Desperate Hours [триллер, драма, криминал, 1990] BDRip, Mvo

salma3

13 | 2

1.45 ГБ

В этой теме нет новых непрочитанных сообщений. Часы отчаяния / Desperate Hours [триллер, драма, криминал, 1990] BDRip 1080p, Mvo

salma3

15 | 6

7.86 ГБ

В этой теме нет новых непрочитанных сообщений. Последние часы / These Final Hours [триллер, драма, фантастика, 2013] BDRemux 1080p, Mvo

salma3

18 | 5

19.78 ГБ

В этой теме нет новых непрочитанных сообщений. Смерть по прибытии / Dead on Arrival (Стивен Сефер / Stephen C. Sepher) [2017г., триллер, WEB-DLRip] MVO

Alfredovich

129 | 26

1.37 ГБ

В этой теме нет новых непрочитанных сообщений. Месяц в деревне / A Month in the Country (Пэт О’Коннор / Pat O’Connor) [1987г., Великобритания, драма, BDRip] MVO

Alfredovich

0 | 0

1.46 ГБ

В этой теме нет новых непрочитанных сообщений. И грянул шторм / The Finest Hours [Боевик, триллер, драма, история, 2016] BDRip 1080p, Dub [Чистый звук]

salma3

177 | 30

14.22 ГБ


Начать новую тему Ответить на тему  [ 1 сообщение ] 




Для Мосгорсуда, Роскомнадзора и рекламодателей:: mosgorsud-torrent[собачка]yandex.ru
cron