Торрент файл
скачать торрент магнет ссылка Добавлен: 12 янв 2013, 23:48
Размер: 2.39 ГБ
Сидеров: 2
Личеров: 3
Автор

СообщениеДобавлено: 12 янв 2013, 23:48 

Не в сети
Супермодератор
Аватара пользователя
Дата регистрации:
11 апр 2010, 18:10
Спасибо: 5995 / 7
Сообщения: 56685
id="p-25224744-1">Бруклинские полицейские / Brooklyn's Finest«This is War. This is Brooklyn.»

Год выпуска: 2009
Страна: США
Жанр: боевик, триллер, драма, криминал
Продолжительность: 02:12:38
Перевод: Профессиональный (многоголосый, закадровый Велес / R5)
Русские субтитры: есть
Навигация по главам: есть

Режиссер: Антуан Фукуа / Antoine Fuqua

В ролях: Ричард Гир, Дон Чидл, Этан Хоук, Уэсли Снайпс, Винсент Д`Онофрио, Брайан Ф. О’Бирн, Уилл Пэттон, Лили Тейлор, Эллен Баркин, Джесси Уильямс

Описание: Фильм повествует о трех никак между собой не связанных бруклинских полицейских, которые оказываются в одной судьбоносной сюжетной точке, несмотря на совершенно разные карьеры: один — работает под прикрытием в среде наркомафии, второй — коррумпирован по самое не балуйся, третий — всегда играл по правилам и теперь хочет только спокойно дожить до почетной отставки.

Качество: BDRip, 720p
Исходник: BD Remux
Формат: m4v
Видео кодек: H.264
Аудио кодек: AAC
Видео: 1280x536, 2253 Kbps, 23,976 fps
Аудио RUS: 48 kHz, AAC, 2ch, 153 kbps - Профессиональный (многоголосый, закадровый Велес / R5)
Аудио ENG: 48 kHz, AAC, 2ch, 165 kbps - оригинал
MediaInfo
Код:
Код:
Полное имя : F:\Brooklyn's Finest.m4v
Формат : MPEG-4
Идентификатор кодека : M4V
Размер файла : 2,39 Гбайт
Продолжительность : 2 ч. 12 м.
Общий поток : 2579 Кбит/сек
Название фильма : Brooklyn's Finest
Исполнитель : Antoine Fuqua
Жанр : Action & Adventure
Дата записи : 2010-03-05T08:00:00Z
Дата кодирования : UTC 2011-10-27 10:23:52
Дата пометки : UTC 2011-10-28 10:34:04
Программа кодирования : MkvToMp4 [www.mkvtomp4.ru] version 0.216
Обложка : Yes
soar : Antoine Fuqua
desc : Фильм повествует о трех никак между собой не связанных бруклинских полицейских, которые оказываются в одной судьбоносной сюжетной точке, несмотря на совершенно разные карьеры
ldes : Фильм повествует о трех никак между собой не связанных бруклинских полицейских, которые оказываются в одной судьбоносной сюжетной точке, несмотря на совершенно разные карьеры: один — работает под прикрытием в среде наркомафии, второй — коррумпирован по самое не балуйся, третий — всегда играл по правилам и теперь хочет только спокойно дожить до почетной отставки.
hdvd : 1
cnID : 357835979
xid : iPad:vendor_id:2010-409241
iTunEXTC : mpaa|R|400|
iTunMOVI : / / / / cast / / / name / Ричард Гир / / / name / Дон Чидл / / / name / Этан Хоук / / / name / Уэсли Снайпс / / / name / Винсент Д`Онофрио / / / name / Брайан Ф. О’Бирн / / / name / Уилл Пэттон / / / name / Лили Тейлор / / / name / Эллен Баркин / / / name / Джесси Уильямс / / / directors / / / name / Антуан Фукуа / / / producers / / / name / Эли Кон / / / name / Джон Томпсон / / / name / Бэзил Иваник / / / screenwriters / / / name / Майкл С. Мартин / / / /
Видео
Идентификатор : 1
Формат : AVC
Формат/Информация : Advanced Video Codec
Профиль формата : [email protected]
Параметр CABAC формата : Да
Параметр ReFrames формата : 11 кадры
Идентификатор кодека : avc1
Идентификатор кодека/Информация : Advanced Video Coding
Продолжительность : 2 ч. 12 м.
Вид битрейта : Переменный
Битрейт : 2253 Кбит/сек
Максимальный битрейт : 12,3 Мбит/сек
Ширина : 1280 пикс.
Высота : 536 пикс.
Соотношение сторон : 2,35:1
Режим частоты кадров : Постоянный
Частота кадров : 23,976 кадр/сек
Цветовое пространство : YUV
Подвыборка цветности : 4:2:0
Битовая глубина : 8 бит
Тип развёртки : Прогрессивная
Бит/(Пиксели*Кадры) : 0.137
Размер потока : 2,09 Гбайт (87%)
Заголовок : Brooklyn's Finest 2009
Библиотека кодирования : x264 core 100 r1659 57b2e56
Настройки программы : cabac=1 / ref=11 / deblock=1:-2:-1 / analyse=0x3:0x133 / me=umh / subme=10 / psy=1 / psy_rd=1.00:0.05 / mixed_ref=1 / me_range=32 / chroma_me=1 / trellis=2 / 8x8dct=1 / cqm=0 / deadzone=21,11 / fast_pskip=0 / chroma_qp_offset=-3 / threads=6 / sliced_threads=0 / nr=0 / decimate=1 / interlaced=0 / constrained_intra=0 / bframes=9 / b_pyramid=2 / b_adapt=2 / b_bias=0 / direct=3 / weightb=1 / open_gop=0 / weightp=2 / keyint=250 / keyint_min=25 / scenecut=40 / intra_refresh=0 / rc_lookahead=100 / rc=2pass / mbtree=1 / bitrate=2253 / ratetol=1.0 / qcomp=0.72 / qpmin=10 / qpmax=51 / qpstep=4 / cplxblur=20.0 / qblur=0.5 / ip_ratio=1.40 / aq=2:0.90 / zones=181310,190823,q=30
Язык : English
Дата кодирования : UTC 2011-10-27 10:23:52
Дата пометки : UTC 2011-10-27 10:28:07
Аудио #1
Идентификатор : 2
Формат : AAC
Формат/Информация : Advanced Audio Codec
Профиль формата : LC
Идентификатор кодека : 40
Продолжительность : 2 ч. 12 м.
Вид битрейта : Переменный
Битрейт : 153 Кбит/сек
Максимальный битрейт : 244 Кбит/сек
Канал(ы) : 2 канала(ов)
Расположение каналов : Front: L R
Частота : 48,0 КГц
Метод сжатия : С потерями
Размер потока : 145 Мбайт (6%)
Заголовок : Russian stereo
Язык : Russian
Дата кодирования : UTC 2011-10-27 10:27:35
Дата пометки : UTC 2011-10-27 10:28:07
Аудио #2
Идентификатор : 3
Формат : AAC
Формат/Информация : Advanced Audio Codec
Профиль формата : LC
Идентификатор кодека : 40
Продолжительность : 2 ч. 12 м.
Вид битрейта : Переменный
Битрейт : 165 Кбит/сек
Максимальный битрейт : 273 Кбит/сек
Канал(ы) : 2 канала(ов)
Расположение каналов : Front: L R
Частота : 48,0 КГц
Метод сжатия : С потерями
Размер потока : 157 Мбайт (6%)
Заголовок : English stereo
Язык : English
Дата кодирования : UTC 2011-10-27 10:27:50
Дата пометки : UTC 2011-10-27 10:28:07
Текст #1
Идентификатор : 4
Формат : Timed text
Режим смешивания : sbtl
Идентификатор кодека : tx3g
Продолжительность : 2 ч. 6 м.
Вид битрейта : Переменный
Битрейт : 85 бит/сек
Размер потока : 78,8 Кбайт (0%)
Заголовок : [email protected]
Язык : Russian
Дата кодирования : UTC 2011-10-27 10:28:04
Дата пометки : UTC 2011-10-27 10:28:07
Текст #2
Идентификатор : 5
Формат : Timed text
Режим смешивания : sbtl
Идентификатор кодека : tx3g
Продолжительность : 2 ч. 8 м.
Вид битрейта : Переменный
Битрейт : 77 бит/сек
Размер потока : 73,0 Кбайт (0%)
Заголовок : BD | SDH (Subtitles for the Deaf and Hard of Hearing)
Язык : English
Дата кодирования : UTC 2011-10-27 10:28:05
Дата пометки : UTC 2011-10-27 10:28:07
Текст #3
Идентификатор : 6
Формат : Timed text
Режим смешивания : sbtl
Идентификатор кодека : tx3g
Продолжительность : 2 ч. 5 м.
Вид битрейта : Переменный
Битрейт : 72 бит/сек
Размер потока : 66,3 Кбайт (0%)
Язык : English
Дата кодирования : UTC 2011-10-27 10:28:06
Дата пометки : UTC 2011-10-27 10:28:07
Текст #4
Идентификатор : 7
Формат : Apple text
Идентификатор кодека : text
Продолжительность : 2 ч. 12 м.
Вид битрейта : Переменный
Битрейт : 1 бит/сек
Размер потока : 652 байт (0%)
Дата кодирования : UTC 2011-10-28 10:33:38
Дата пометки : UTC 2011-10-28 10:33:38

Лог
Код:
Код:
x264 [info]: frame I:1181  Avg QP:17.35  size: 76448
x264 [info]: frame P:38429 Avg QP:20.68  size: 24058
x264 [info]: frame B:151213 Avg QP:22.86  size:  8113

Скриншоты



Вернуться к началу
 Профиль Отправить личное сообщение  
 
   Похожие торренты   Автор   Торрент   Размер 
В этой теме нет новых непрочитанных сообщений. Левша / Southpaw (Антуан Фукуа) [Драма, спорт, боевик, триллер, 2015] BDRip 720p, Dub [iTunes]

Dracon

217 | 25

5.8 ГБ

В этой теме нет новых непрочитанных сообщений. Левша / Southpaw (Антуан Фукуа) [2015, Драма, спорт, боевик, триллер, BDRip-AVC | Чадов] avo

Dracon

161 | 14

2.42 ГБ

В этой теме нет новых непрочитанных сообщений. Левша / Southpaw (Антуан Фукуа) [Драма, спорт, боевик, триллер, 2015] BDRip 1080p, Dub [iTunes]

Dracon

180 | 20

9.07 ГБ

В этой теме нет новых непрочитанных сообщений. Левша / Southpaw (Антуан Фукуа) [Драма, спорт, боевик, триллер, 2015] WEB-DLRip-AVC, Dub [iTunes]

Dracon

4028 | 273

2.16 ГБ

В этой теме нет новых непрочитанных сообщений. Левша / Southpaw (Антуан Фукуа) [Драма, спорт, боевик, триллер, 2015] HDRip, Dub [iTunes]

Dracon

259 | 5

2.05 ГБ

В этой теме нет новых непрочитанных сообщений. Левша / Southpaw (Антуан Фукуа) [Драма, спорт, боевик, триллер, 2015] HDRip, Dub [iTunes]

Dracon

1787 | 113

1.37 ГБ

В этой теме нет новых непрочитанных сообщений. Ущербность / Préjudice (Антуан Кюйперс / Antoine Cuypers) [2015г., Бельгия, драма, WEBRip 720p] sub

Alfredovich

1 | 0

979.63 МБ


Начать новую тему Ответить на тему  [ 1 сообщение ] 




Для Мосгорсуда, Роскомнадзора и рекламодателей:: mosgorsud-torrent[собачка]yandex.ru
cron