Торрент файл
скачать торрент магнет ссылка Добавлен: 12 янв 2013, 23:48
Размер: 1.78 ГБ
Сидеров: 2
Личеров: 4
Автор

СообщениеДобавлено: 12 янв 2013, 23:48 

Не в сети
Супермодератор
Аватара пользователя
Дата регистрации:
11 апр 2010, 18:10
Спасибо: 5995 / 7
Сообщения: 56685
id="p-25224744-1">Том и Джерри: Быстрый и бешеный / Tom and Jerry: The Fast and the Furry



Страна: США
Жанр: мультфильм, комедия, приключения
Продолжительность: 01:14:36
Год выпуска: 2005
Перевод: Профессиональный (многоголосый закадровый)
Режиссёр: Билл Копп / Bill Kopp
Роли озвучивали: Чарльз Адлер, Джефф Беннетт, Джон Ди Маджио, Джесс Харнелл, Том Кенни, Билл Копп, Тресс МакНилл, Роб Полсен, Билли Уэст, Дж. Грант Альбрехт
Описание: Том и Джерри принимают участие в гонках под названием "Fabolous Super Race" в надежде получить Суперприз - шикарный особняк! Но даже во время гонки не перестают гонятся друг за другом, устраивая ловушки.

Качество: BDRip
Исходник: http://rutracker.org/forum/viewtopic.php?t=3615866
Формат: m4v
Видео кодек: H.264
Аудио кодек: AAC
Видео: 1280x720, 3269 Kbps, 23,976 fps
Аудио Rus: 48 kHz, AAC, 2ch, 132 kbps
MediaInfo
Код:
Код:
Полное имя : F:\iPad\Tom and Jerry The Fast and the Furry.m4v
Формат : MPEG-4
Идентификатор кодека : M4V
Размер файла : 1,78 Гбайт
Продолжительность : 1 ч. 14 м.
Общий поток : 3409 Кбит/сек
Название фильма : Том и Джерри: Быстрый и бешеный
Исполнитель : Билл Копп
Жанр : Kids & Family
Дата записи : UTC 2005-10-11 07:00:00
Дата кодирования : UTC 2012-02-12 05:37:56
Дата пометки : UTC 2012-02-19 06:39:33
Программа кодирования : X Lossless Decoder 20100401, QuickTime 7.6.6, Constrained VBR 160 kbps
Обложка : Yes
desc : Том и Джерри принимают участие в гонках в надежде получить суперприз — шикарный особняк! Но даже во время гонки не перестают гонятся друг за другом, устраивая ловушки.
ldes : Том и Джерри принимают участие в гонках в надежде получить суперприз — шикарный особняк! Но даже во время гонки не перестают гонятся друг за другом, устраивая ловушки.
hdvd : 1
stik : 9
rtng : 0
cnID : 376360307
xid : iPad:vendor_id:2005-368584
iTunEXTC : mpaa|G|100|
iTunMOVI : / / / / cast / / / name / Чарльз Адлер / / / name / Джефф Беннетт / / / name / Джон Ди Маджио / / / name / Джесс Харнелл / / / name / Том Кенни / / / name / Билл Копп / / / name / Тресс МакНилл / / / name / Роб Полсен / / / name / Билли Уэст / / / name / Дж. Грант Альбрехт / / / directors / / / name / Билл Копп / / / producers / / / name / Стивен Фоссатти / / / name / Джозеф Барбера / / / name / Дайан А. Креа / / / screenwriters / / / name / Билл Копп / / / name / Джозеф Барбера / / / name / Уильям Ханна / / / /
Видео
Идентификатор : 1
Формат : AVC
Формат/Информация : Advanced Video Codec
Профиль формата : [email protected]
Параметр CABAC формата : Да
Параметр ReFrames формата : 8 кадры
Идентификатор кодека : avc1
Идентификатор кодека/Информация : Advanced Video Coding
Продолжительность : 1 ч. 14 м.
Вид битрейта : Переменный
Битрейт : 3269 Кбит/сек
Максимальный битрейт : 14,3 Мбит/сек
Ширина : 1280 пикс.
Высота : 720 пикс.
Соотношение сторон : 16:9
Режим частоты кадров : Постоянный
Частота кадров : 23,976 кадр/сек
Цветовое пространство : YUV
Подвыборка цветности : 4:2:0
Битовая глубина : 8 бит
Тип развёртки : Прогрессивная
Бит/(Пиксели*Кадры) : 0.148
Размер потока : 1,70 Гбайт (96%)
Заголовок : Tom and Jerry
Библиотека кодирования : x264 core 115 r1995 c1e60b9
Настройки программы : cabac=1 / ref=8 / deblock=1:-3:-3 / analyse=0x3:0x133 / me=umh / subme=10 / psy=1 / psy_rd=1.00:0.00 / mixed_ref=1 / me_range=64 / chroma_me=1 / trellis=2 / 8x8dct=1 / cqm=0 / deadzone=21,11 / fast_pskip=0 / chroma_qp_offset=-2 / threads=9 / sliced_threads=0 / nr=0 / decimate=0 / interlaced=0 / bluray_compat=0 / constrained_intra=0 / bframes=10 / b_pyramid=2 / b_adapt=2 / b_bias=0 / direct=3 / weightb=1 / open_gop=0 / weightp=2 / keyint=250 / keyint_min=23 / scenecut=40 / intra_refresh=0 / rc_lookahead=40 / rc=crf / mbtree=0 / crf=17.0 / qcomp=0.60 / qpmin=0 / qpmax=69 / qpstep=4 / vbv_maxrate=50000 / vbv_bufsize=62500 / crf_max=0.0 / nal_hrd=none / ip_ratio=1.40 / pb_ratio=1.30 / aq=1:0.80
Дата кодирования : UTC 2012-02-12 05:37:56
Дата пометки : UTC 2012-02-12 05:39:47
Аудио
Идентификатор : 7
Формат : AAC
Формат/Информация : Advanced Audio Codec
Профиль формата : LC
Идентификатор кодека : 40
Продолжительность : 1 ч. 14 м.
Вид битрейта : Переменный
Битрейт : 132,3 Кбит/сек
Максимальный битрейт : 260 Кбит/сек
Канал(ы) : 2 канала(ов)
Расположение каналов : Front: L R
Частота : 48,0 КГц
Метод сжатия : С потерями
Размер потока : 69,4 Мбайт (4%)
Язык : Russian
Дата кодирования : UTC 2012-02-16 11:32:03
Дата пометки : UTC 2012-02-16 11:32:05
Текст #1
Идентификатор : 5
Формат : Timed text
Режим смешивания : sbtl
Идентификатор кодека : tx3g
Продолжительность : 1 ч. 14 м.
Вид битрейта : Переменный
Битрейт : 50 бит/сек
Размер потока : 27,4 Кбайт (0%)
Язык : English
Дата кодирования : UTC 2012-02-12 05:39:46
Дата пометки : UTC 2012-02-12 05:39:47
Текст #2
Идентификатор : 8
Формат : Apple text
Идентификатор кодека : text
Продолжительность : 1 ч. 14 м.
Вид битрейта : Постоянный
Битрейт : 1 бит/сек
Размер потока : 378 байт (0%)
Дата кодирования : UTC 2012-02-19 06:39:33
Дата пометки : UTC 2012-02-19 06:39:33

Скриншоты



Вернуться к началу
 Профиль Отправить личное сообщение  
 
   Похожие торренты   Автор   Торрент   Размер 
В этой теме нет новых непрочитанных сообщений. Невероятный Блинки Билл / Blinky Bill the Movie [мультфильм, приключения, семейный, 2015] BDRip 720p, Dub [iTunes]

salma3

20 | 5

3.51 ГБ

В этой теме нет новых непрочитанных сообщений. Невероятный Блинки Билл / Blinky Bill the Movie [мультфильм, приключения, семейный, 2015] HDRip, Mvo

salma3

138 | 13

1.37 ГБ

В этой теме нет новых непрочитанных сообщений. Том и Джерри: Вилли Вонка и шоколадная фабрика / Tom and Jerry: Willy Wonka and the Chocolate Factory [мультфильм, мюзикл, комедия, 2017] WEB-DLRip, Mvo

salma3

705 | 42

1.45 ГБ

В этой теме нет новых непрочитанных сообщений. Том и Джерри: Фильм / Tom and Jerry: The Movie [Мультфильм, Семейный, 1992] DVDRip-AVC, Dub

salma3

214 | 60

1.57 ГБ

В этой теме нет новых непрочитанных сообщений. Дум / Doom [ужасы, фантастика, боевик, приключения, 2005] BDRip 720p, Dub [Расширенная версия] [iPad]

salma3

61 | 28

2.07 ГБ

В этой теме нет новых непрочитанных сообщений. Том и Джерри: Шпион Квест / Tom and Jerry: Spy Quest (Спайк Брандт, Тони Червоне) [мультфильм, 2015] WEB-DL 1080p, Mvo [iTunes]

Dracon

29 | 1

3.08 ГБ

В этой теме нет новых непрочитанных сообщений. Том и Джерри: Шпион Квест / Tom and Jerry: Spy Quest (Спайк Брандт, Тони Червоне) [мультфильм, 2015] WEB-DLRip, Mvo [iTunes]

Dracon

8 | 0

1.37 ГБ


Начать новую тему Ответить на тему  [ 1 сообщение ] 




Для Мосгорсуда, Роскомнадзора и рекламодателей:: mosgorsud-torrent[собачка]yandex.ru
cron